<?xml version="1.0" standalone="no"?>
<!DOCTYPE svg PUBLIC "-//W3C//DTD SVG 1.1//EN" "http://www.w3.org/Graphics/SVG/1.1/DTD/svg11.dtd" >
<svg xmlns="http://www.w3.org/2000/svg">
<metadata></metadata>
<defs>
<font id="ma_weather_ms01regular" horiz-adv-x="1000" >
<font-face units-per-em="1000" ascent="750" descent="-250" />
<missing-glyph horiz-adv-x="500" />
<glyph />
<glyph />
<glyph unicode="&#xd;" />
<glyph unicode=" " />
<glyph unicode="!" d="M211 398l25 42l77 -44q-8 -10 -14 -20.5t-11 -21.5zM518 485q-5 1 -12 1.5t-13 0.5t-12.5 -0.5t-11.5 -0.5v89h49v-90zM316 521l43 25l44 -78q-11 -5 -21.5 -11t-20.5 -13zM698 353q-11 22 -24 42l77 45l25 -42zM182 239v49h88q-1 -7 -1 -13v-12v-11.5t1 -12.5h-88z M626 443q-10 8 -21 14t-22 11l45 78l43 -25zM584 58q24 11 42 25l45 -78l-43 -24zM211 128l77 45q5 -11 11 -22t13 -21l-76 -44zM716 239q1 7 1 12.5v11.5v12t-1 13h90v-49h-90zM674 131q15 19 24 42l78 -45l-25 -42zM316 5l45 77q18 -14 42 -25l-44 -76zM469 -49v89 q5 -1 11.5 -1h12.5h13t12 1v-89h-49zM670 263q0 -36 -14 -68.5t-38 -56.5t-56 -38t-69 -14t-69 14t-56 38t-38 56.5t-14 68.5q0 37 14 69t38 56t56 38t69 14t69 -14t56 -38t38 -56t14 -69zM619 263q0 26 -10 49t-27 40t-40 27t-49 10t-49 -10t-40 -27t-27 -40t-10 -49 t10 -49t27 -40t40 -27t49 -10t49 10t40 27t27 40t10 49z" />
<glyph unicode="&#x22;" d="M41 493l25 42l77 -44q-14 -20 -25 -43zM350 580q-7 1 -13.5 1h-12.5h-13t-12 -1v90h51v-90zM146 616l43 24l45 -77q-11 -5 -22 -11t-21 -13zM13 334v49h87q-1 -7 -1 -13v-12v-11.5t1 -12.5h-87zM456 538q-10 8 -20.5 13.5t-21.5 10.5l44 78l43 -24zM41 223l77 44 q5 -11 11 -21.5t13 -20.5l-76 -44zM958 159q0 -33 -12.5 -61.5t-34 -50.5t-50 -34.5t-61.5 -12.5h-504q-27 0 -51.5 10.5t-42.5 28.5t-28.5 42.5t-10.5 52.5t10.5 52.5t28.5 42.5q-26 24 -41 57.5t-15 71.5q0 36 14 68.5t38 56.5t56.5 38t68.5 14q47 0 86 -22.5t63 -58.5 q31 37 75.5 58t95.5 21q46 0 87 -17.5t71.5 -48.5t48 -72t17.5 -87v-4q29 -14 50 -38q20 -22 30.5 -49.5t10.5 -57.5zM246 258q1 1 2 1t2 1q7 30 23.5 56t40 44.5t53 29.5t61.5 11q2 0 5 -0.5t5 -0.5q0 1 2 5q-14 35 -45.5 57t-71.5 22q-26 0 -49 -10t-40 -27t-27 -40 t-10 -49q0 -31 13 -57t36 -43zM907 159q0 21 -7.5 40t-20.5 33.5t-30.5 23.5t-37.5 11q5 22 5 42q0 36 -13.5 67.5t-37 55t-55 37t-67.5 13.5q-32 0 -60.5 -10.5t-51 -29.5t-37.5 -44.5t-21 -55.5q-20 7 -45 7q-27 0 -51 -10.5t-42 -28.5t-28.5 -42t-10.5 -51 q-34 0 -58 -24.5t-24 -58.5t24 -58.5t58 -24.5h504q22 0 41.5 8.5t34 23.5t23 34.5t8.5 41.5z" />
<glyph unicode="#" d="M576 482q-32 0 -60 -10.5t-50.5 -29.5t-38 -44.5t-21.5 -55.5q-20 7 -44 7q-27 0 -51 -10.5t-42 -28.5t-28.5 -42t-10.5 -51q-35 0 -58.5 -24.5t-23.5 -58.5t23.5 -58.5t58.5 -24.5h504q22 0 41.5 8.5t34 23.5t23 34.5t8.5 41.5q0 42 -28 73t-69 35q3 10 4 20.5t1 21.5 q0 36 -13.5 67.5t-37 55t-55 37t-67.5 13.5zM576 533q46 0 87 -17.5t72 -48.5t48.5 -72t17.5 -87v-4q14 -7 26.5 -16.5t23.5 -21.5q20 -22 30.5 -49.5t10.5 -57.5q0 -33 -12.5 -61.5t-34 -50.5t-50 -34.5t-61.5 -12.5h-504q-28 0 -52 10.5t-42 28.5t-28.5 42.5t-10.5 52.5 q0 44 24.5 78t62.5 48q7 30 23.5 56t40 44.5t53 29.5t61.5 11q2 0 4.5 -0.5t4.5 -0.5q27 60 82 96.5t123 36.5z" />
<glyph unicode="$" d="M576 482q-32 0 -60 -10.5t-50.5 -29.5t-38 -44.5t-21.5 -55.5q-20 7 -44 7q-27 0 -51 -10.5t-42 -28.5t-28.5 -42t-10.5 -51q-35 0 -58.5 -24.5t-23.5 -58.5t23.5 -58.5t58.5 -24.5h504q22 0 41.5 8.5t34 23.5t23 34.5t8.5 41.5q0 42 -28 73t-69 35q3 10 4 20.5t1 21.5 q0 36 -13.5 67.5t-37 55t-55 37t-67.5 13.5zM576 533q46 0 87 -17.5t72 -48.5t48.5 -72t17.5 -87v-4q14 -7 26.5 -16.5t23.5 -21.5q20 -22 30.5 -49.5t10.5 -57.5q0 -33 -12.5 -61.5t-34 -50.5t-50 -34.5t-61.5 -12.5h-504q-28 0 -52 10.5t-42 28.5t-28.5 42.5t-10.5 52.5 q0 44 24.5 78t62.5 48q7 30 23.5 56t40 44.5t53 29.5t61.5 11q2 0 4.5 -0.5t4.5 -0.5q27 60 82 96.5t123 36.5z" />
<glyph unicode="%" d="M211 398l25 42l77 -44q-8 -10 -14 -20.5t-11 -21.5zM518 485q-5 1 -12 1.5t-13 0.5t-12.5 -0.5t-11.5 -0.5v89h49v-90zM698 353q-11 22 -24 42l77 45l25 -42zM211 128l77 45q5 -11 11 -22t13 -21l-76 -44zM674 131q15 19 24 42l78 -45l-25 -42zM469 -49v89q5 -1 11.5 -1 h12.5h13t12 1v-89h-49zM670 263q0 -36 -14 -68.5t-38 -56.5t-56 -38t-69 -14t-69 14t-56 38t-38 56.5t-14 68.5q0 37 14 69t38 56t56 38t69 14t69 -14t56 -38t38 -56t14 -69zM619 263q0 26 -10 49t-27 40t-40 27t-49 10t-49 -10t-40 -27t-27 -40t-10 -49t10 -49t27 -40 t40 -27t49 -10t49 10t40 27t27 40t10 49z" />
<glyph unicode="&#x26;" d="M795 -177h-602v51h602v-51zM576 482q-32 0 -60 -10.5t-50.5 -29.5t-38 -44.5t-21.5 -55.5q-20 7 -44 7q-27 0 -51 -10.5t-42 -28.5t-28.5 -42t-10.5 -51q-35 0 -58.5 -24.5t-23.5 -58.5t23.5 -58.5t58.5 -24.5h504q22 0 41.5 8.5t34 23.5t23 34.5t8.5 41.5q0 42 -28 73 t-69 35q3 10 4 20.5t1 21.5q0 36 -13.5 67.5t-37 55t-55 37t-67.5 13.5zM576 533q46 0 87 -17.5t72 -48.5t48.5 -72t17.5 -87v-4q14 -7 26.5 -16.5t23.5 -21.5q20 -22 30.5 -49.5t10.5 -57.5q0 -33 -12.5 -61.5t-34 -50.5t-50 -34.5t-61.5 -12.5h-504q-28 0 -52 10.5 t-42 28.5t-28.5 42.5t-10.5 52.5q0 44 24.5 78t62.5 48q7 30 23.5 56t40 44.5t53 29.5t61.5 11q2 0 4.5 -0.5t4.5 -0.5q27 60 82 96.5t123 36.5z" />
<glyph unicode="'" d="M795 -91h-602v51h602v-51zM795 -177h-602v51h602v-51zM576 482q-32 0 -60 -10.5t-50.5 -29.5t-38 -44.5t-21.5 -55.5q-20 7 -44 7q-27 0 -51 -10.5t-42 -28.5t-28.5 -42t-10.5 -51q-35 0 -58.5 -24.5t-23.5 -58.5t23.5 -58.5t58.5 -24.5h504q22 0 41.5 8.5t34 23.5 t23 34.5t8.5 41.5q0 42 -28 73t-69 35q3 10 4 20.5t1 21.5q0 36 -13.5 67.5t-37 55t-55 37t-67.5 13.5zM576 533q46 0 87 -17.5t72 -48.5t48.5 -72t17.5 -87v-4q14 -7 26.5 -16.5t23.5 -21.5q20 -22 30.5 -49.5t10.5 -57.5q0 -33 -12.5 -61.5t-34 -50.5t-50 -34.5 t-61.5 -12.5h-504q-28 0 -52 10.5t-42 28.5t-28.5 42.5t-10.5 52.5q0 44 24.5 78t62.5 48q7 30 23.5 56t40 44.5t53 29.5t61.5 11q2 0 4.5 -0.5t4.5 -0.5q27 60 82 96.5t123 36.5z" />
<glyph unicode="(" d="M523 263q0 -45 23 -80.5t61 -54.5q-17 -14 -37 -24q-36 -17 -77 -17q-36 0 -68.5 14t-56.5 38t-38 56t-14 68q0 37 14 69t38 56t56.5 38t68.5 14q21 0 40.5 -5t36.5 -13q11 -5 20 -11t17 -13q-38 -19 -61 -54.5t-23 -80.5zM521 141q-23 23 -36.5 55t-13.5 67 q0 36 13.5 67.5t36.5 55.5q-14 3 -28 3q-26 0 -49 -10t-40 -27t-27 -40t-10 -49t10 -49t27 -40t40 -27t49 -10q8 0 14.5 1t13.5 3z" />
<glyph unicode=")" d="M467 -215h-53l80 160h53zM573 -215h-53l80 160h53zM41 493l25 42l77 -44q-14 -20 -25 -43zM350 580q-7 1 -13.5 1h-12.5h-13t-12 -1v90h51v-90zM146 616l43 24l45 -77q-11 -5 -22 -11t-21 -13zM13 334v49h87q-1 -7 -1 -13v-12v-11.5t1 -12.5h-87zM456 538 q-10 8 -20.5 13.5t-21.5 10.5l44 78l43 -24zM41 223l77 44q5 -11 11 -21.5t13 -20.5l-76 -44zM958 159q0 -33 -12.5 -61.5t-34 -50.5t-50 -34.5t-61.5 -12.5h-504q-27 0 -51.5 10.5t-42.5 28.5t-28.5 42.5t-10.5 52.5t10.5 52.5t28.5 42.5q-26 24 -41 57.5t-15 71.5 q0 36 14 68.5t38 56.5t56.5 38t68.5 14q47 0 86 -22.5t63 -58.5q31 37 75.5 58t95.5 21q46 0 87 -17.5t71.5 -48.5t48 -72t17.5 -87v-4q29 -14 50 -38q20 -22 30.5 -49.5t10.5 -57.5zM246 258q1 1 2 1t2 1q7 30 23.5 56t40 44.5t53 29.5t61.5 11q2 0 5 -0.5t5 -0.5q0 1 2 5 q-14 35 -45.5 57t-71.5 22q-26 0 -49 -10t-40 -27t-27 -40t-10 -49q0 -31 13 -57t36 -43zM907 159q0 21 -7.5 40t-20.5 33.5t-30.5 23.5t-37.5 11q5 22 5 42q0 36 -13.5 67.5t-37 55t-55 37t-67.5 13.5q-32 0 -60.5 -10.5t-51 -29.5t-37.5 -44.5t-21 -55.5q-20 7 -45 7 q-27 0 -51 -10.5t-42 -28.5t-28.5 -42t-10.5 -51q-34 0 -58 -24.5t-24 -58.5t24 -58.5t58 -24.5h504q22 0 41.5 8.5t34 23.5t23 34.5t8.5 41.5z" />
<glyph unicode="*" d="M361 -215h-53l79 160h53zM467 -215h-53l80 160h53zM573 -215h-53l80 160h53zM679 -215h-53l80 160h53zM41 493l25 42l77 -44q-14 -20 -25 -43zM350 580q-7 1 -13.5 1h-12.5h-13t-12 -1v90h51v-90zM146 616l43 24l45 -77q-11 -5 -22 -11t-21 -13zM13 334v49h87 q-1 -7 -1 -13v-12v-11.5t1 -12.5h-87zM456 538q-10 8 -20.5 13.5t-21.5 10.5l44 78l43 -24zM41 223l77 44q5 -11 11 -21.5t13 -20.5l-76 -44zM958 159q0 -33 -12.5 -61.5t-34 -50.5t-50 -34.5t-61.5 -12.5h-504q-27 0 -51.5 10.5t-42.5 28.5t-28.5 42.5t-10.5 52.5 t10.5 52.5t28.5 42.5q-26 24 -41 57.5t-15 71.5q0 36 14 68.5t38 56.5t56.5 38t68.5 14q47 0 86 -22.5t63 -58.5q31 37 75.5 58t95.5 21q46 0 87 -17.5t71.5 -48.5t48 -72t17.5 -87v-4q29 -14 50 -38q20 -22 30.5 -49.5t10.5 -57.5zM246 258q1 1 2 1t2 1q7 30 23.5 56 t40 44.5t53 29.5t61.5 11q2 0 5 -0.5t5 -0.5q0 1 2 5q-14 35 -45.5 57t-71.5 22q-26 0 -49 -10t-40 -27t-27 -40t-10 -49q0 -31 13 -57t36 -43zM907 159q0 21 -7.5 40t-20.5 33.5t-30.5 23.5t-37.5 11q5 22 5 42q0 36 -13.5 67.5t-37 55t-55 37t-67.5 13.5 q-32 0 -60.5 -10.5t-51 -29.5t-37.5 -44.5t-21 -55.5q-20 7 -45 7q-27 0 -51 -10.5t-42 -28.5t-28.5 -42t-10.5 -51q-34 0 -58 -24.5t-24 -58.5t24 -58.5t58 -24.5h504q22 0 41.5 8.5t34 23.5t23 34.5t8.5 41.5z" />
<glyph unicode="+" d="M622 -155h-44h-4l2 -2l23 -39l-34 -19l-22 38l-1 4l-2 -4l-22 -38l-33 19l21 38l3 3h-4h-44v38h44h4l-2 3l-23 38l34 20l22 -39l1 -3l2 3l22 39l33 -19l-22 -39l-2 -3l4 1h44v-39zM41 493l25 42l77 -44q-14 -20 -25 -43zM350 580q-7 1 -13.5 1h-12.5h-13t-12 -1v90h51 v-90zM146 616l43 24l45 -77q-11 -5 -22 -11t-21 -13zM13 334v49h87q-1 -7 -1 -13v-12v-11.5t1 -12.5h-87zM456 538q-10 8 -20.5 13.5t-21.5 10.5l44 78l43 -24zM41 223l77 44q5 -11 11 -21.5t13 -20.5l-76 -44zM958 159q0 -33 -12.5 -61.5t-34 -50.5t-50 -34.5t-61.5 -12.5 h-504q-27 0 -51.5 10.5t-42.5 28.5t-28.5 42.5t-10.5 52.5t10.5 52.5t28.5 42.5q-26 24 -41 57.5t-15 71.5q0 36 14 68.5t38 56.5t56.5 38t68.5 14q47 0 86 -22.5t63 -58.5q31 37 75.5 58t95.5 21q46 0 87 -17.5t71.5 -48.5t48 -72t17.5 -87v-4q29 -14 50 -38 q20 -22 30.5 -49.5t10.5 -57.5zM246 258q1 1 2 1t2 1q7 30 23.5 56t40 44.5t53 29.5t61.5 11q2 0 5 -0.5t5 -0.5q0 1 2 5q-14 35 -45.5 57t-71.5 22q-26 0 -49 -10t-40 -27t-27 -40t-10 -49q0 -31 13 -57t36 -43zM907 159q0 21 -7.5 40t-20.5 33.5t-30.5 23.5t-37.5 11 q5 22 5 42q0 36 -13.5 67.5t-37 55t-55 37t-67.5 13.5q-32 0 -60.5 -10.5t-51 -29.5t-37.5 -44.5t-21 -55.5q-20 7 -45 7q-27 0 -51 -10.5t-42 -28.5t-28.5 -42t-10.5 -51q-34 0 -58 -24.5t-24 -58.5t24 -58.5t58 -24.5h504q22 0 41.5 8.5t34 23.5t23 34.5t8.5 41.5z" />
<glyph unicode="," d="M728 -155h-44h-4l2 -2l23 -39l-33 -19l-23 38l-1 4l-2 -4l-22 -38l-33 19l22 38l2 3h-4h-44v38h44h4l-2 3l-22 38l33 20l22 -39l2 -3l1 3l22 39l34 -19l-23 -39l-2 -3l4 1h44v-39zM516 -155h-45h-3l2 -2l22 -39l-33 -19l-22 38l-2 4l-1 -4l-22 -38l-34 19l22 38l3 3h-4 h-44v38h44h4l-3 3l-22 38l33 20l23 -39l1 -3l2 3l22 39l33 -19l-22 -39l-2 -3l4 1h44v-39zM41 493l25 42l77 -44q-14 -20 -25 -43zM350 580q-7 1 -13.5 1h-12.5h-13t-12 -1v90h51v-90zM146 616l43 24l45 -77q-11 -5 -22 -11t-21 -13zM13 334v49h87q-1 -7 -1 -13v-12v-11.5 t1 -12.5h-87zM456 538q-10 8 -20.5 13.5t-21.5 10.5l44 78l43 -24zM41 223l77 44q5 -11 11 -21.5t13 -20.5l-76 -44zM958 159q0 -33 -12.5 -61.5t-34 -50.5t-50 -34.5t-61.5 -12.5h-504q-27 0 -51.5 10.5t-42.5 28.5t-28.5 42.5t-10.5 52.5t10.5 52.5t28.5 42.5 q-26 24 -41 57.5t-15 71.5q0 36 14 68.5t38 56.5t56.5 38t68.5 14q47 0 86 -22.5t63 -58.5q31 37 75.5 58t95.5 21q46 0 87 -17.5t71.5 -48.5t48 -72t17.5 -87v-4q29 -14 50 -38q20 -22 30.5 -49.5t10.5 -57.5zM246 258q1 1 2 1t2 1q7 30 23.5 56t40 44.5t53 29.5t61.5 11 q2 0 5 -0.5t5 -0.5q0 1 2 5q-14 35 -45.5 57t-71.5 22q-26 0 -49 -10t-40 -27t-27 -40t-10 -49q0 -31 13 -57t36 -43zM907 159q0 21 -7.5 40t-20.5 33.5t-30.5 23.5t-37.5 11q5 22 5 42q0 36 -13.5 67.5t-37 55t-55 37t-67.5 13.5q-32 0 -60.5 -10.5t-51 -29.5t-37.5 -44.5 t-21 -55.5q-20 7 -45 7q-27 0 -51 -10.5t-42 -28.5t-28.5 -42t-10.5 -51q-34 0 -58 -24.5t-24 -58.5t24 -58.5t58 -24.5h504q22 0 41.5 8.5t34 23.5t23 34.5t8.5 41.5z" />
<glyph unicode="-" d="M361 -215h-53l79 160h53zM467 -215h-53l80 160h53zM728 -155h-44h-4l2 -2l23 -39l-33 -19l-23 38l-1 4l-2 -4l-22 -38l-33 19l22 38l2 3h-4h-44v38h44h4l-2 3l-22 38l33 20l22 -39l2 -3l1 3l22 39l34 -19l-23 -39l-2 -3l4 1h44v-39zM41 493l25 42l77 -44q-14 -20 -25 -43 zM350 580q-7 1 -13.5 1h-12.5h-13t-12 -1v90h51v-90zM146 616l43 24l45 -77q-11 -5 -22 -11t-21 -13zM13 334v49h87q-1 -7 -1 -13v-12v-11.5t1 -12.5h-87zM456 538q-10 8 -20.5 13.5t-21.5 10.5l44 78l43 -24zM41 223l77 44q5 -11 11 -21.5t13 -20.5l-76 -44zM958 159 q0 -33 -12.5 -61.5t-34 -50.5t-50 -34.5t-61.5 -12.5h-504q-27 0 -51.5 10.5t-42.5 28.5t-28.5 42.5t-10.5 52.5t10.5 52.5t28.5 42.5q-26 24 -41 57.5t-15 71.5q0 36 14 68.5t38 56.5t56.5 38t68.5 14q47 0 86 -22.5t63 -58.5q31 37 75.5 58t95.5 21q46 0 87 -17.5 t71.5 -48.5t48 -72t17.5 -87v-4q29 -14 50 -38q20 -22 30.5 -49.5t10.5 -57.5zM246 258q1 1 2 1t2 1q7 30 23.5 56t40 44.5t53 29.5t61.5 11q2 0 5 -0.5t5 -0.5q0 1 2 5q-14 35 -45.5 57t-71.5 22q-26 0 -49 -10t-40 -27t-27 -40t-10 -49q0 -31 13 -57t36 -43zM907 159 q0 21 -7.5 40t-20.5 33.5t-30.5 23.5t-37.5 11q5 22 5 42q0 36 -13.5 67.5t-37 55t-55 37t-67.5 13.5q-32 0 -60.5 -10.5t-51 -29.5t-37.5 -44.5t-21 -55.5q-20 7 -45 7q-27 0 -51 -10.5t-42 -28.5t-28.5 -42t-10.5 -51q-34 0 -58 -24.5t-24 -58.5t24 -58.5t58 -24.5h504 q22 0 41.5 8.5t34 23.5t23 34.5t8.5 41.5z" />
<glyph unicode="." d="M542 -76q24 0 41.5 -17.5t17.5 -42.5t-17.5 -42t-41.5 -17q-25 0 -42.5 17t-17.5 42t17.5 42.5t42.5 17.5zM41 493l25 42l77 -44q-14 -20 -25 -43zM350 580q-7 1 -13.5 1h-12.5h-13t-12 -1v90h51v-90zM146 616l43 24l45 -77q-11 -5 -22 -11t-21 -13zM13 334v49h87 q-1 -7 -1 -13v-12v-11.5t1 -12.5h-87zM456 538q-10 8 -20.5 13.5t-21.5 10.5l44 78l43 -24zM41 223l77 44q5 -11 11 -21.5t13 -20.5l-76 -44zM958 159q0 -33 -12.5 -61.5t-34 -50.5t-50 -34.5t-61.5 -12.5h-504q-27 0 -51.5 10.5t-42.5 28.5t-28.5 42.5t-10.5 52.5 t10.5 52.5t28.5 42.5q-26 24 -41 57.5t-15 71.5q0 36 14 68.5t38 56.5t56.5 38t68.5 14q47 0 86 -22.5t63 -58.5q31 37 75.5 58t95.5 21q46 0 87 -17.5t71.5 -48.5t48 -72t17.5 -87v-4q29 -14 50 -38q20 -22 30.5 -49.5t10.5 -57.5zM246 258q1 1 2 1t2 1q7 30 23.5 56 t40 44.5t53 29.5t61.5 11q2 0 5 -0.5t5 -0.5q0 1 2 5q-14 35 -45.5 57t-71.5 22q-26 0 -49 -10t-40 -27t-27 -40t-10 -49q0 -31 13 -57t36 -43zM907 159q0 21 -7.5 40t-20.5 33.5t-30.5 23.5t-37.5 11q5 22 5 42q0 36 -13.5 67.5t-37 55t-55 37t-67.5 13.5 q-32 0 -60.5 -10.5t-51 -29.5t-37.5 -44.5t-21 -55.5q-20 7 -45 7q-27 0 -51 -10.5t-42 -28.5t-28.5 -42t-10.5 -51q-34 0 -58 -24.5t-24 -58.5t24 -58.5t58 -24.5h504q22 0 41.5 8.5t34 23.5t23 34.5t8.5 41.5z" />
<glyph unicode="/" d="M435 -76q25 0 42.5 -17.5t17.5 -42.5t-17.5 -42t-42.5 -17t-42 17t-17 42t17 42.5t42 17.5zM648 -76q25 0 42 -17.5t17 -42.5t-17 -42t-42 -17t-42.5 17t-17.5 42t17.5 42.5t42.5 17.5zM41 493l25 42l77 -44q-14 -20 -25 -43zM350 580q-7 1 -13.5 1h-12.5h-13t-12 -1v90 h51v-90zM146 616l43 24l45 -77q-11 -5 -22 -11t-21 -13zM13 334v49h87q-1 -7 -1 -13v-12v-11.5t1 -12.5h-87zM456 538q-10 8 -20.5 13.5t-21.5 10.5l44 78l43 -24zM41 223l77 44q5 -11 11 -21.5t13 -20.5l-76 -44zM958 159q0 -33 -12.5 -61.5t-34 -50.5t-50 -34.5 t-61.5 -12.5h-504q-27 0 -51.5 10.5t-42.5 28.5t-28.5 42.5t-10.5 52.5t10.5 52.5t28.5 42.5q-26 24 -41 57.5t-15 71.5q0 36 14 68.5t38 56.5t56.5 38t68.5 14q47 0 86 -22.5t63 -58.5q31 37 75.5 58t95.5 21q46 0 87 -17.5t71.5 -48.5t48 -72t17.5 -87v-4q29 -14 50 -38 q20 -22 30.5 -49.5t10.5 -57.5zM246 258q1 1 2 1t2 1q7 30 23.5 56t40 44.5t53 29.5t61.5 11q2 0 5 -0.5t5 -0.5q0 1 2 5q-14 35 -45.5 57t-71.5 22q-26 0 -49 -10t-40 -27t-27 -40t-10 -49q0 -31 13 -57t36 -43zM907 159q0 21 -7.5 40t-20.5 33.5t-30.5 23.5t-37.5 11 q5 22 5 42q0 36 -13.5 67.5t-37 55t-55 37t-67.5 13.5q-32 0 -60.5 -10.5t-51 -29.5t-37.5 -44.5t-21 -55.5q-20 7 -45 7q-27 0 -51 -10.5t-42 -28.5t-28.5 -42t-10.5 -51q-34 0 -58 -24.5t-24 -58.5t24 -58.5t58 -24.5h504q22 0 41.5 8.5t34 23.5t23 34.5t8.5 41.5z" />
<glyph unicode="0" d="M324 581h-13t-12 -1v90h51v-90q-7 1 -13.5 1h-12.5zM234 563l-45 77l-43 -24l45 -77q10 7 21 13t22 11zM958 159q0 -33 -12.5 -61.5t-34 -50.5t-50 -34.5t-61.5 -12.5h-122l26 51h96q22 0 41.5 8.5t34 23.5t23 34.5t8.5 41.5q0 21 -7.5 40t-20.5 33.5t-30.5 23.5 t-37.5 11q5 22 5 42q0 36 -13.5 67.5t-37 55t-55 37t-67.5 13.5q-32 0 -60.5 -10.5t-51 -29.5t-37.5 -44.5t-21 -55.5q-20 7 -45 7q-27 0 -51 -10.5t-42 -28.5t-28.5 -42t-10.5 -51q-34 0 -58 -24.5t-24 -58.5t24 -58.5t58 -24.5h177l-26 -51h-151q-27 0 -51.5 10.5 t-42.5 28.5t-28.5 42.5t-10.5 52.5t10.5 52.5t28.5 42.5q-26 24 -41 57.5t-15 71.5q0 36 14 68.5t38 56.5t56.5 38t68.5 14q47 0 86 -22.5t63 -58.5q31 37 75.5 58t95.5 21q46 0 87 -17.5t71.5 -48.5t48 -72t17.5 -87v-4q29 -14 50 -38q20 -22 30.5 -49.5t10.5 -57.5z M440 405q-14 35 -45.5 57t-71.5 22q-26 0 -49 -10t-40 -27t-27 -40t-10 -49q0 -31 13 -57t36 -43q1 1 2 1t2 1q7 30 23.5 56t40 44.5t53 29.5t61.5 11q2 0 5 -0.5t5 -0.5q0 1 2 5zM501 616l-43 24l-44 -78q11 -5 21.5 -10.5t20.5 -13.5zM41 493l77 -45q11 23 25 43l-77 44z M99 358v12t1 13h-87v-49h87q-1 7 -1 12.5v11.5zM41 223l25 -42l76 44q-7 10 -13 20.5t-11 21.5zM588 51l54 108h-53l-80 -159h52l-54 -108h53l-53 -107h53l80 160h-53l53 106h-52z" />
<glyph unicode="1" d="M401 -215h-53l79 160h53zM507 -215h-53l79 160h54zM576 482q-32 0 -60 -10.5t-50.5 -29.5t-38 -44.5t-21.5 -55.5q-20 7 -44 7q-27 0 -51 -10.5t-42 -28.5t-28.5 -42t-10.5 -51q-35 0 -58.5 -24.5t-23.5 -58.5t23.5 -58.5t58.5 -24.5h504q22 0 41.5 8.5t34 23.5t23 34.5 t8.5 41.5q0 42 -28 73t-69 35q3 10 4 20.5t1 21.5q0 36 -13.5 67.5t-37 55t-55 37t-67.5 13.5zM576 533q46 0 87 -17.5t72 -48.5t48.5 -72t17.5 -87v-4q14 -7 26.5 -16.5t23.5 -21.5q20 -22 30.5 -49.5t10.5 -57.5q0 -33 -12.5 -61.5t-34 -50.5t-50 -34.5t-61.5 -12.5h-504 q-28 0 -52 10.5t-42 28.5t-28.5 42.5t-10.5 52.5q0 44 24.5 78t62.5 48q7 30 23.5 56t40 44.5t53 29.5t61.5 11q2 0 4.5 -0.5t4.5 -0.5q27 60 82 96.5t123 36.5z" />
<glyph unicode="2" d="M294 -215h-53l80 160h53zM401 -215h-53l79 160h53zM507 -215h-53l79 160h54zM613 -215h-53l80 160h53zM576 482q-32 0 -60 -10.5t-50.5 -29.5t-38 -44.5t-21.5 -55.5q-20 7 -44 7q-27 0 -51 -10.5t-42 -28.5t-28.5 -42t-10.5 -51q-35 0 -58.5 -24.5t-23.5 -58.5 t23.5 -58.5t58.5 -24.5h504q22 0 41.5 8.5t34 23.5t23 34.5t8.5 41.5q0 42 -28 73t-69 35q3 10 4 20.5t1 21.5q0 36 -13.5 67.5t-37 55t-55 37t-67.5 13.5zM576 533q46 0 87 -17.5t72 -48.5t48.5 -72t17.5 -87v-4q14 -7 26.5 -16.5t23.5 -21.5q20 -22 30.5 -49.5t10.5 -57.5 q0 -33 -12.5 -61.5t-34 -50.5t-50 -34.5t-61.5 -12.5h-504q-28 0 -52 10.5t-42 28.5t-28.5 42.5t-10.5 52.5q0 44 24.5 78t62.5 48q7 30 23.5 56t40 44.5t53 29.5t61.5 11q2 0 4.5 -0.5t4.5 -0.5q27 60 82 96.5t123 36.5z" />
<glyph unicode="3" d="M556 -155h-45h-3l2 -2l22 -39l-33 -19l-22 38l-2 4l-1 -4l-22 -38l-34 19l22 38l3 3h-5h-43l-1 38h44h5l-3 3l-22 38l33 20l23 -39l1 -3l2 3l22 39l33 -19l-22 -39l-2 -3l3 1h45v-39zM576 482q-32 0 -60 -10.5t-50.5 -29.5t-38 -44.5t-21.5 -55.5q-20 7 -44 7 q-27 0 -51 -10.5t-42 -28.5t-28.5 -42t-10.5 -51q-35 0 -58.5 -24.5t-23.5 -58.5t23.5 -58.5t58.5 -24.5h504q22 0 41.5 8.5t34 23.5t23 34.5t8.5 41.5q0 42 -28 73t-69 35q3 10 4 20.5t1 21.5q0 36 -13.5 67.5t-37 55t-55 37t-67.5 13.5zM576 533q46 0 87 -17.5t72 -48.5 t48.5 -72t17.5 -87v-4q14 -7 26.5 -16.5t23.5 -21.5q20 -22 30.5 -49.5t10.5 -57.5q0 -33 -12.5 -61.5t-34 -50.5t-50 -34.5t-61.5 -12.5h-504q-28 0 -52 10.5t-42 28.5t-28.5 42.5t-10.5 52.5q0 44 24.5 78t62.5 48q7 30 23.5 56t40 44.5t53 29.5t61.5 11q2 0 4.5 -0.5 t4.5 -0.5q27 60 82 96.5t123 36.5z" />
<glyph unicode="4" d="M662 -155h-45h-3l2 -2l22 -39l-33 -19l-22 38l-2 4l-1 -4l-22 -38l-34 19l22 38l3 3h-4h-44v38h44h4l-3 3l-22 38l34 20l22 -39l1 -3l2 3l22 39l33 -19l-22 -39l-2 -3l4 1h44v-39zM450 -155h-45h-3l2 -2l22 -39l-33 -19l-22 38l-2 4l-2 -4l-22 -38l-33 19l22 38l2 3h-4 h-44v38h44h4l-2 3l-22 38l33 20l22 -39l2 -3l1 3l23 39l33 -19l-22 -39l-3 -3l4 1h45v-39zM576 482q-32 0 -60 -10.5t-50.5 -29.5t-38 -44.5t-21.5 -55.5q-20 7 -44 7q-27 0 -51 -10.5t-42 -28.5t-28.5 -42t-10.5 -51q-35 0 -58.5 -24.5t-23.5 -58.5t23.5 -58.5t58.5 -24.5 h504q22 0 41.5 8.5t34 23.5t23 34.5t8.5 41.5q0 42 -28 73t-69 35q3 10 4 20.5t1 21.5q0 36 -13.5 67.5t-37 55t-55 37t-67.5 13.5zM576 533q46 0 87 -17.5t72 -48.5t48.5 -72t17.5 -87v-4q14 -7 26.5 -16.5t23.5 -21.5q20 -22 30.5 -49.5t10.5 -57.5q0 -33 -12.5 -61.5 t-34 -50.5t-50 -34.5t-61.5 -12.5h-504q-28 0 -52 10.5t-42 28.5t-28.5 42.5t-10.5 52.5q0 44 24.5 78t62.5 48q7 30 23.5 56t40 44.5t53 29.5t61.5 11q2 0 4.5 -0.5t4.5 -0.5q27 60 82 96.5t123 36.5z" />
<glyph unicode="5" d="M294 -215h-53l80 160h53zM401 -215h-53l79 160h53zM662 -155h-45h-3l2 -2l22 -39l-33 -19l-22 38l-2 4l-1 -4l-22 -38l-34 19l22 38l3 3h-4h-44v38h44h4l-3 3l-22 38l34 20l22 -39l1 -3l2 3l22 39l33 -19l-22 -39l-2 -3l4 1h44v-39zM576 482q-32 0 -60 -10.5t-50.5 -29.5 t-38 -44.5t-21.5 -55.5q-20 7 -44 7q-27 0 -51 -10.5t-42 -28.5t-28.5 -42t-10.5 -51q-35 0 -58.5 -24.5t-23.5 -58.5t23.5 -58.5t58.5 -24.5h504q22 0 41.5 8.5t34 23.5t23 34.5t8.5 41.5q0 42 -28 73t-69 35q3 10 4 20.5t1 21.5q0 36 -13.5 67.5t-37 55t-55 37t-67.5 13.5 zM576 533q46 0 87 -17.5t72 -48.5t48.5 -72t17.5 -87v-4q14 -7 26.5 -16.5t23.5 -21.5q20 -22 30.5 -49.5t10.5 -57.5q0 -33 -12.5 -61.5t-34 -50.5t-50 -34.5t-61.5 -12.5h-504q-28 0 -52 10.5t-42 28.5t-28.5 42.5t-10.5 52.5q0 44 24.5 78t62.5 48q7 30 23.5 56t40 44.5 t53 29.5t61.5 11q2 0 4.5 -0.5t4.5 -0.5q27 60 82 96.5t123 36.5z" />
<glyph unicode="6" d="M475 -76q25 0 42.5 -17.5t17.5 -42.5t-17.5 -42t-42.5 -17t-42 17t-17 42t17 42.5t42 17.5zM576 482q-32 0 -60 -10.5t-50.5 -29.5t-38 -44.5t-21.5 -55.5q-20 7 -44 7q-27 0 -51 -10.5t-42 -28.5t-28.5 -42t-10.5 -51q-35 0 -58.5 -24.5t-23.5 -58.5t23.5 -58.5 t58.5 -24.5h504q22 0 41.5 8.5t34 23.5t23 34.5t8.5 41.5q0 42 -28 73t-69 35q3 10 4 20.5t1 21.5q0 36 -13.5 67.5t-37 55t-55 37t-67.5 13.5zM576 533q46 0 87 -17.5t72 -48.5t48.5 -72t17.5 -87v-4q14 -7 26.5 -16.5t23.5 -21.5q20 -22 30.5 -49.5t10.5 -57.5 q0 -33 -12.5 -61.5t-34 -50.5t-50 -34.5t-61.5 -12.5h-504q-28 0 -52 10.5t-42 28.5t-28.5 42.5t-10.5 52.5q0 44 24.5 78t62.5 48q7 30 23.5 56t40 44.5t53 29.5t61.5 11q2 0 4.5 -0.5t4.5 -0.5q27 60 82 96.5t123 36.5z" />
<glyph unicode="7" d="M369 -76q25 0 42 -17.5t17 -42.5t-17 -42t-42 -17t-42.5 17t-17.5 42t17.5 42.5t42.5 17.5zM581 -76q25 0 42.5 -17.5t17.5 -42.5t-17.5 -42t-42.5 -17q-24 0 -41.5 17t-17.5 42t17.5 42.5t41.5 17.5zM576 482q-32 0 -60 -10.5t-50.5 -29.5t-38 -44.5t-21.5 -55.5 q-20 7 -44 7q-27 0 -51 -10.5t-42 -28.5t-28.5 -42t-10.5 -51q-35 0 -58.5 -24.5t-23.5 -58.5t23.5 -58.5t58.5 -24.5h504q22 0 41.5 8.5t34 23.5t23 34.5t8.5 41.5q0 42 -28 73t-69 35q3 10 4 20.5t1 21.5q0 36 -13.5 67.5t-37 55t-55 37t-67.5 13.5zM576 533 q46 0 87 -17.5t72 -48.5t48.5 -72t17.5 -87v-4q14 -7 26.5 -16.5t23.5 -21.5q20 -22 30.5 -49.5t10.5 -57.5q0 -33 -12.5 -61.5t-34 -50.5t-50 -34.5t-61.5 -12.5h-504q-28 0 -52 10.5t-42 28.5t-28.5 42.5t-10.5 52.5q0 44 24.5 78t62.5 48q7 30 23.5 56t40 44.5t53 29.5 t61.5 11q2 0 4.5 -0.5t4.5 -0.5q27 60 82 96.5t123 36.5z" />
<glyph unicode="8" d="M851 266q20 -22 30.5 -49.5t10.5 -57.5q0 -33 -12.5 -61.5t-34 -50.5t-50 -34.5t-61.5 -12.5h-122l26 51h96q22 0 41.5 8.5t34 23.5t23 34.5t8.5 41.5q0 42 -28 73t-69 35q3 10 4 20.5t1 21.5q0 36 -13.5 67.5t-37 55t-55 37t-67.5 13.5q-32 0 -60 -10.5t-50.5 -29.5 t-38 -44.5t-21.5 -55.5q-20 7 -44 7q-27 0 -51 -10.5t-42 -28.5t-28.5 -42t-10.5 -51q-35 0 -58.5 -24.5t-23.5 -58.5t23.5 -58.5t58.5 -24.5h177l-26 -51h-151q-28 0 -52 10.5t-42 28.5t-28.5 42.5t-10.5 52.5q0 44 24.5 78t62.5 48q7 30 23.5 56t40 44.5t53 29.5t61.5 11 q2 0 4.5 -0.5t4.5 -0.5q27 60 82 96.5t123 36.5q46 0 87 -17.5t72 -48.5t48.5 -72t17.5 -87v-4q14 -7 26.5 -16.5t23.5 -21.5zM573 51l-53 -106h53l-79 -160h-54l54 107h-54l55 108h-52l79 159h53l-54 -108h52z" />
<glyph unicode="9" d="M467 -215h-53l80 160h53zM573 -215h-53l80 160h53zM643 482q-32 0 -60.5 -10.5t-51 -29.5t-37.5 -44.5t-21 -55.5q-20 7 -45 7q-27 0 -51 -10.5t-42 -28.5t-28.5 -42t-10.5 -51q-34 0 -58 -24.5t-24 -58.5t24 -58.5t58 -24.5h504q22 0 41.5 8.5t34 23.5t23 34.5t8.5 41.5 q0 21 -7.5 40t-20.5 33.5t-30.5 23.5t-37.5 11q5 22 5 42q0 36 -13.5 67.5t-37 55t-55 37t-67.5 13.5zM643 533q46 0 87 -17.5t71.5 -48.5t48 -72t17.5 -87v-4q29 -14 50 -38q20 -22 30.5 -49.5t10.5 -57.5q0 -33 -12.5 -61.5t-34 -50.5t-50 -34.5t-61.5 -12.5h-504 q-27 0 -51.5 10.5t-42.5 28.5t-28.5 42.5t-10.5 52.5q0 44 24.5 78t62.5 48q7 30 23.5 56t40 44.5t53 29.5t61.5 11q2 0 5 -0.5t5 -0.5q13 30 34 54.5t48 42t58 27t65 9.5zM265 577q0 -45 23 -80.5t60 -53.5q-17 -15 -36 -24q-36 -18 -78 -18q-36 0 -68.5 14t-56.5 38 t-38 56t-14 68q0 37 14 69t38 56t56.5 38t68.5 14q42 0 78 -18q19 -9 36 -24q-37 -19 -60 -54.5t-23 -80.5zM262 455q-23 24 -36.5 55.5t-13.5 66.5q0 36 13.5 67.5t36.5 55.5q-14 3 -28 3q-26 0 -49 -10t-40 -27t-27 -40t-10 -49t10 -48.5t27 -39.5t40 -27t49 -10 q14 0 28 3z" />
<glyph unicode=":" d="M361 -215h-53l79 160h53zM467 -215h-53l80 160h53zM573 -215h-53l80 160h53zM679 -215h-53l80 160h53zM643 482q-32 0 -60.5 -10.5t-51 -29.5t-37.5 -44.5t-21 -55.5q-20 7 -45 7q-27 0 -51 -10.5t-42 -28.5t-28.5 -42t-10.5 -51q-34 0 -58 -24.5t-24 -58.5t24 -58.5 t58 -24.5h504q22 0 41.5 8.5t34 23.5t23 34.5t8.5 41.5q0 21 -7.5 40t-20.5 33.5t-30.5 23.5t-37.5 11q5 22 5 42q0 36 -13.5 67.5t-37 55t-55 37t-67.5 13.5zM643 533q46 0 87 -17.5t71.5 -48.5t48 -72t17.5 -87v-4q29 -14 50 -38q20 -22 30.5 -49.5t10.5 -57.5 q0 -33 -12.5 -61.5t-34 -50.5t-50 -34.5t-61.5 -12.5h-504q-27 0 -51.5 10.5t-42.5 28.5t-28.5 42.5t-10.5 52.5q0 44 24.5 78t62.5 48q7 30 23.5 56t40 44.5t53 29.5t61.5 11q2 0 5 -0.5t5 -0.5q13 30 34 54.5t48 42t58 27t65 9.5zM265 577q0 -45 23 -80.5t60 -53.5 q-17 -15 -36 -24q-36 -18 -78 -18q-36 0 -68.5 14t-56.5 38t-38 56t-14 68q0 37 14 69t38 56t56.5 38t68.5 14q42 0 78 -18q19 -9 36 -24q-37 -19 -60 -54.5t-23 -80.5zM262 455q-23 24 -36.5 55.5t-13.5 66.5q0 36 13.5 67.5t36.5 55.5q-14 3 -28 3q-26 0 -49 -10t-40 -27 t-27 -40t-10 -49t10 -48.5t27 -39.5t40 -27t49 -10q14 0 28 3z" />
<glyph unicode=";" d="M622 -155h-44h-4l2 -2l23 -39l-34 -19l-22 38l-1 4l-2 -4l-22 -38l-33 19l21 38l3 3h-4h-44v38h44h4l-2 3l-23 38l34 20l22 -39l1 -3l2 3l22 39l33 -19l-22 -39l-2 -3l4 1h44v-39zM643 482q-32 0 -60.5 -10.5t-51 -29.5t-37.5 -44.5t-21 -55.5q-20 7 -45 7 q-27 0 -51 -10.5t-42 -28.5t-28.5 -42t-10.5 -51q-34 0 -58 -24.5t-24 -58.5t24 -58.5t58 -24.5h504q22 0 41.5 8.5t34 23.5t23 34.5t8.5 41.5q0 21 -7.5 40t-20.5 33.5t-30.5 23.5t-37.5 11q5 22 5 42q0 36 -13.5 67.5t-37 55t-55 37t-67.5 13.5zM643 533q46 0 87 -17.5 t71.5 -48.5t48 -72t17.5 -87v-4q29 -14 50 -38q20 -22 30.5 -49.5t10.5 -57.5q0 -33 -12.5 -61.5t-34 -50.5t-50 -34.5t-61.5 -12.5h-504q-27 0 -51.5 10.5t-42.5 28.5t-28.5 42.5t-10.5 52.5q0 44 24.5 78t62.5 48q7 30 23.5 56t40 44.5t53 29.5t61.5 11q2 0 5 -0.5t5 -0.5 q13 30 34 54.5t48 42t58 27t65 9.5zM265 577q0 -45 23 -80.5t60 -53.5q-17 -15 -36 -24q-36 -18 -78 -18q-36 0 -68.5 14t-56.5 38t-38 56t-14 68q0 37 14 69t38 56t56.5 38t68.5 14q42 0 78 -18q19 -9 36 -24q-37 -19 -60 -54.5t-23 -80.5zM262 455q-23 24 -36.5 55.5 t-13.5 66.5q0 36 13.5 67.5t36.5 55.5q-14 3 -28 3q-26 0 -49 -10t-40 -27t-27 -40t-10 -49t10 -48.5t27 -39.5t40 -27t49 -10q14 0 28 3z" />
<glyph unicode="&#x3c;" d="M728 -155h-44h-4l2 -2l23 -39l-33 -19l-23 38l-1 4l-2 -4l-22 -38l-33 19l22 38l2 3h-4h-44v38h44h4l-2 3l-22 38l33 20l22 -39l2 -3l1 3l22 39l34 -19l-23 -39l-2 -3l4 1h44v-39zM516 -155h-45h-3l2 -2l22 -39l-33 -19l-22 38l-2 4l-1 -4l-22 -38l-34 19l22 38l3 3h-4 h-44v38h44h4l-3 3l-22 38l33 20l23 -39l1 -3l2 3l22 39l33 -19l-22 -39l-2 -3l4 1h44v-39zM643 482q-32 0 -60.5 -10.5t-51 -29.5t-37.5 -44.5t-21 -55.5q-20 7 -45 7q-27 0 -51 -10.5t-42 -28.5t-28.5 -42t-10.5 -51q-34 0 -58 -24.5t-24 -58.5t24 -58.5t58 -24.5h504 q22 0 41.5 8.5t34 23.5t23 34.5t8.5 41.5q0 21 -7.5 40t-20.5 33.5t-30.5 23.5t-37.5 11q5 22 5 42q0 36 -13.5 67.5t-37 55t-55 37t-67.5 13.5zM643 533q46 0 87 -17.5t71.5 -48.5t48 -72t17.5 -87v-4q29 -14 50 -38q20 -22 30.5 -49.5t10.5 -57.5q0 -33 -12.5 -61.5 t-34 -50.5t-50 -34.5t-61.5 -12.5h-504q-27 0 -51.5 10.5t-42.5 28.5t-28.5 42.5t-10.5 52.5q0 44 24.5 78t62.5 48q7 30 23.5 56t40 44.5t53 29.5t61.5 11q2 0 5 -0.5t5 -0.5q13 30 34 54.5t48 42t58 27t65 9.5zM265 577q0 -45 23 -80.5t60 -53.5q-17 -15 -36 -24 q-36 -18 -78 -18q-36 0 -68.5 14t-56.5 38t-38 56t-14 68q0 37 14 69t38 56t56.5 38t68.5 14q42 0 78 -18q19 -9 36 -24q-37 -19 -60 -54.5t-23 -80.5zM262 455q-23 24 -36.5 55.5t-13.5 66.5q0 36 13.5 67.5t36.5 55.5q-14 3 -28 3q-26 0 -49 -10t-40 -27t-27 -40t-10 -49 t10 -48.5t27 -39.5t40 -27t49 -10q14 0 28 3z" />
<glyph unicode="=" d="M361 -215h-53l79 160h53zM467 -215h-53l80 160h53zM728 -155h-44h-4l2 -2l23 -39l-33 -19l-23 38l-1 4l-2 -4l-22 -38l-33 19l22 38l2 3h-4h-44v38h44h4l-2 3l-22 38l33 20l22 -39l2 -3l1 3l22 39l34 -19l-23 -39l-2 -3l4 1h44v-39zM643 482q-32 0 -60.5 -10.5t-51 -29.5 t-37.5 -44.5t-21 -55.5q-20 7 -45 7q-27 0 -51 -10.5t-42 -28.5t-28.5 -42t-10.5 -51q-34 0 -58 -24.5t-24 -58.5t24 -58.5t58 -24.5h504q22 0 41.5 8.5t34 23.5t23 34.5t8.5 41.5q0 21 -7.5 40t-20.5 33.5t-30.5 23.5t-37.5 11q5 22 5 42q0 36 -13.5 67.5t-37 55t-55 37 t-67.5 13.5zM643 533q46 0 87 -17.5t71.5 -48.5t48 -72t17.5 -87v-4q29 -14 50 -38q20 -22 30.5 -49.5t10.5 -57.5q0 -33 -12.5 -61.5t-34 -50.5t-50 -34.5t-61.5 -12.5h-504q-27 0 -51.5 10.5t-42.5 28.5t-28.5 42.5t-10.5 52.5q0 44 24.5 78t62.5 48q7 30 23.5 56t40 44.5 t53 29.5t61.5 11q2 0 5 -0.5t5 -0.5q13 30 34 54.5t48 42t58 27t65 9.5zM265 577q0 -45 23 -80.5t60 -53.5q-17 -15 -36 -24q-36 -18 -78 -18q-36 0 -68.5 14t-56.5 38t-38 56t-14 68q0 37 14 69t38 56t56.5 38t68.5 14q42 0 78 -18q19 -9 36 -24q-37 -19 -60 -54.5 t-23 -80.5zM262 455q-23 24 -36.5 55.5t-13.5 66.5q0 36 13.5 67.5t36.5 55.5q-14 3 -28 3q-26 0 -49 -10t-40 -27t-27 -40t-10 -49t10 -48.5t27 -39.5t40 -27t49 -10q14 0 28 3z" />
<glyph unicode="&#x3e;" d="M542 -76q24 0 41.5 -17.5t17.5 -42.5t-17.5 -42t-41.5 -17q-25 0 -42.5 17t-17.5 42t17.5 42.5t42.5 17.5zM643 482q-32 0 -60.5 -10.5t-51 -29.5t-37.5 -44.5t-21 -55.5q-20 7 -45 7q-27 0 -51 -10.5t-42 -28.5t-28.5 -42t-10.5 -51q-34 0 -58 -24.5t-24 -58.5t24 -58.5 t58 -24.5h504q22 0 41.5 8.5t34 23.5t23 34.5t8.5 41.5q0 21 -7.5 40t-20.5 33.5t-30.5 23.5t-37.5 11q5 22 5 42q0 36 -13.5 67.5t-37 55t-55 37t-67.5 13.5zM643 533q46 0 87 -17.5t71.5 -48.5t48 -72t17.5 -87v-4q29 -14 50 -38q20 -22 30.5 -49.5t10.5 -57.5 q0 -33 -12.5 -61.5t-34 -50.5t-50 -34.5t-61.5 -12.5h-504q-27 0 -51.5 10.5t-42.5 28.5t-28.5 42.5t-10.5 52.5q0 44 24.5 78t62.5 48q7 30 23.5 56t40 44.5t53 29.5t61.5 11q2 0 5 -0.5t5 -0.5q13 30 34 54.5t48 42t58 27t65 9.5zM265 577q0 -45 23 -80.5t60 -53.5 q-17 -15 -36 -24q-36 -18 -78 -18q-36 0 -68.5 14t-56.5 38t-38 56t-14 68q0 37 14 69t38 56t56.5 38t68.5 14q42 0 78 -18q19 -9 36 -24q-37 -19 -60 -54.5t-23 -80.5zM262 455q-23 24 -36.5 55.5t-13.5 66.5q0 36 13.5 67.5t36.5 55.5q-14 3 -28 3q-26 0 -49 -10t-40 -27 t-27 -40t-10 -49t10 -48.5t27 -39.5t40 -27t49 -10q14 0 28 3z" />
<glyph unicode="?" d="M435 -76q25 0 42.5 -17.5t17.5 -42.5t-17.5 -42t-42.5 -17t-42 17t-17 42t17 42.5t42 17.5zM648 -76q25 0 42 -17.5t17 -42.5t-17 -42t-42 -17t-42.5 17t-17.5 42t17.5 42.5t42.5 17.5zM643 482q-32 0 -60.5 -10.5t-51 -29.5t-37.5 -44.5t-21 -55.5q-20 7 -45 7 q-27 0 -51 -10.5t-42 -28.5t-28.5 -42t-10.5 -51q-34 0 -58 -24.5t-24 -58.5t24 -58.5t58 -24.5h504q22 0 41.5 8.5t34 23.5t23 34.5t8.5 41.5q0 21 -7.5 40t-20.5 33.5t-30.5 23.5t-37.5 11q5 22 5 42q0 36 -13.5 67.5t-37 55t-55 37t-67.5 13.5zM643 533q46 0 87 -17.5 t71.5 -48.5t48 -72t17.5 -87v-4q29 -14 50 -38q20 -22 30.5 -49.5t10.5 -57.5q0 -33 -12.5 -61.5t-34 -50.5t-50 -34.5t-61.5 -12.5h-504q-27 0 -51.5 10.5t-42.5 28.5t-28.5 42.5t-10.5 52.5q0 44 24.5 78t62.5 48q7 30 23.5 56t40 44.5t53 29.5t61.5 11q2 0 5 -0.5t5 -0.5 q13 30 34 54.5t48 42t58 27t65 9.5zM265 577q0 -45 23 -80.5t60 -53.5q-17 -15 -36 -24q-36 -18 -78 -18q-36 0 -68.5 14t-56.5 38t-38 56t-14 68q0 37 14 69t38 56t56.5 38t68.5 14q42 0 78 -18q19 -9 36 -24q-37 -19 -60 -54.5t-23 -80.5zM262 455q-23 24 -36.5 55.5 t-13.5 66.5q0 36 13.5 67.5t36.5 55.5q-14 3 -28 3q-26 0 -49 -10t-40 -27t-27 -40t-10 -49t10 -48.5t27 -39.5t40 -27t49 -10q14 0 28 3z" />
<glyph unicode="@" d="M640 51l-53 -106h53l-80 -160h-53l53 107h-53l54 108h-52l80 159h53l-54 -108h52zM265 577q0 -45 23 -80.5t60 -53.5q-17 -15 -36 -24q-36 -18 -78 -18q-36 0 -68.5 14t-56.5 38t-38 56t-14 68q0 37 14 69t38 56t56.5 38t68.5 14q42 0 78 -18q19 -9 36 -24 q-37 -19 -60 -54.5t-23 -80.5zM262 455q-23 24 -36.5 55.5t-13.5 66.5q0 36 13.5 67.5t36.5 55.5q-14 3 -28 3q-26 0 -49 -10t-40 -27t-27 -40t-10 -49t10 -48.5t27 -39.5t40 -27t49 -10q14 0 28 3zM917 266q20 -22 30.5 -49.5t10.5 -57.5q0 -33 -12.5 -61.5t-34 -50.5 t-50 -34.5t-61.5 -12.5h-122l26 51h96q22 0 41.5 8.5t34 23.5t23 34.5t8.5 41.5q0 21 -7.5 40t-20.5 33.5t-30.5 23.5t-37.5 11q5 22 5 42q0 36 -13.5 67.5t-37 55t-55 37t-67.5 13.5q-32 0 -60.5 -10.5t-51 -29.5t-37.5 -44.5t-21 -55.5q-20 7 -45 7q-27 0 -51 -10.5 t-42 -28.5t-28.5 -42t-10.5 -51q-34 0 -58 -24.5t-24 -58.5t24 -58.5t58 -24.5h177l-25 -51h-152q-27 0 -51.5 10.5t-42.5 28.5t-28.5 42.5t-10.5 52.5q0 44 24.5 78t62.5 48q7 30 23.5 56t40 44.5t53 29.5t61.5 11q2 0 5 -0.5t5 -0.5q13 30 34 54.5t48 42t58 27t65 9.5 q46 0 87 -17.5t71.5 -48.5t48 -72t17.5 -87v-4q29 -14 50 -38z" />
<glyph unicode="A" d="M401 -215h-53l79 160h53zM507 -215h-53l79 160h54zM576 482q-32 0 -60 -10.5t-50.5 -29.5t-38 -44.5t-21.5 -55.5q-20 7 -44 7q-27 0 -51 -10.5t-42 -28.5t-28.5 -42t-10.5 -51q-35 0 -58.5 -24.5t-23.5 -58.5t23.5 -58.5t58.5 -24.5h504q22 0 41.5 8.5t34 23.5t23 34.5 t8.5 41.5q0 42 -28 73t-69 35q3 10 4 20.5t1 21.5q0 36 -13.5 67.5t-37 55t-55 37t-67.5 13.5zM576 533q46 0 87 -17.5t72 -48.5t48.5 -72t17.5 -87v-4q14 -7 26.5 -16.5t23.5 -21.5q20 -22 30.5 -49.5t10.5 -57.5q0 -33 -12.5 -61.5t-34 -50.5t-50 -34.5t-61.5 -12.5h-504 q-28 0 -52 10.5t-42 28.5t-28.5 42.5t-10.5 52.5q0 44 24.5 78t62.5 48q7 30 23.5 56t40 44.5t53 29.5t61.5 11q2 0 4.5 -0.5t4.5 -0.5q27 60 82 96.5t123 36.5z" />
<glyph unicode="B" d="M294 -215h-53l80 160h53zM401 -215h-53l79 160h53zM507 -215h-53l79 160h54zM613 -215h-53l80 160h53zM576 482q-32 0 -60 -10.5t-50.5 -29.5t-38 -44.5t-21.5 -55.5q-20 7 -44 7q-27 0 -51 -10.5t-42 -28.5t-28.5 -42t-10.5 -51q-35 0 -58.5 -24.5t-23.5 -58.5 t23.5 -58.5t58.5 -24.5h504q22 0 41.5 8.5t34 23.5t23 34.5t8.5 41.5q0 42 -28 73t-69 35q3 10 4 20.5t1 21.5q0 36 -13.5 67.5t-37 55t-55 37t-67.5 13.5zM576 533q46 0 87 -17.5t72 -48.5t48.5 -72t17.5 -87v-4q14 -7 26.5 -16.5t23.5 -21.5q20 -22 30.5 -49.5t10.5 -57.5 q0 -33 -12.5 -61.5t-34 -50.5t-50 -34.5t-61.5 -12.5h-504q-28 0 -52 10.5t-42 28.5t-28.5 42.5t-10.5 52.5q0 44 24.5 78t62.5 48q7 30 23.5 56t40 44.5t53 29.5t61.5 11q2 0 4.5 -0.5t4.5 -0.5q27 60 82 96.5t123 36.5z" />
<glyph unicode="C" d="M556 -155h-45h-3l2 -2l22 -39l-33 -19l-22 38l-2 4l-1 -4l-22 -38l-34 19l22 38l3 3h-5h-43l-1 38h44h5l-3 3l-22 38l33 20l23 -39l1 -3l2 3l22 39l33 -19l-22 -39l-2 -3l3 1h45v-39zM576 482q-32 0 -60 -10.5t-50.5 -29.5t-38 -44.5t-21.5 -55.5q-20 7 -44 7 q-27 0 -51 -10.5t-42 -28.5t-28.5 -42t-10.5 -51q-35 0 -58.5 -24.5t-23.5 -58.5t23.5 -58.5t58.5 -24.5h504q22 0 41.5 8.5t34 23.5t23 34.5t8.5 41.5q0 42 -28 73t-69 35q3 10 4 20.5t1 21.5q0 36 -13.5 67.5t-37 55t-55 37t-67.5 13.5zM576 533q46 0 87 -17.5t72 -48.5 t48.5 -72t17.5 -87v-4q14 -7 26.5 -16.5t23.5 -21.5q20 -22 30.5 -49.5t10.5 -57.5q0 -33 -12.5 -61.5t-34 -50.5t-50 -34.5t-61.5 -12.5h-504q-28 0 -52 10.5t-42 28.5t-28.5 42.5t-10.5 52.5q0 44 24.5 78t62.5 48q7 30 23.5 56t40 44.5t53 29.5t61.5 11q2 0 4.5 -0.5 t4.5 -0.5q27 60 82 96.5t123 36.5z" />
<glyph unicode="D" d="M662 -155h-45h-3l2 -2l22 -39l-33 -19l-22 38l-2 4l-1 -4l-22 -38l-34 19l22 38l3 3h-4h-44v38h44h4l-3 3l-22 38l34 20l22 -39l1 -3l2 3l22 39l33 -19l-22 -39l-2 -3l4 1h44v-39zM450 -155h-45h-3l2 -2l22 -39l-33 -19l-22 38l-2 4l-2 -4l-22 -38l-33 19l22 38l2 3h-4 h-44v38h44h4l-2 3l-22 38l33 20l22 -39l2 -3l1 3l23 39l33 -19l-22 -39l-3 -3l4 1h45v-39zM576 482q-32 0 -60 -10.5t-50.5 -29.5t-38 -44.5t-21.5 -55.5q-20 7 -44 7q-27 0 -51 -10.5t-42 -28.5t-28.5 -42t-10.5 -51q-35 0 -58.5 -24.5t-23.5 -58.5t23.5 -58.5t58.5 -24.5 h504q22 0 41.5 8.5t34 23.5t23 34.5t8.5 41.5q0 42 -28 73t-69 35q3 10 4 20.5t1 21.5q0 36 -13.5 67.5t-37 55t-55 37t-67.5 13.5zM576 533q46 0 87 -17.5t72 -48.5t48.5 -72t17.5 -87v-4q14 -7 26.5 -16.5t23.5 -21.5q20 -22 30.5 -49.5t10.5 -57.5q0 -33 -12.5 -61.5 t-34 -50.5t-50 -34.5t-61.5 -12.5h-504q-28 0 -52 10.5t-42 28.5t-28.5 42.5t-10.5 52.5q0 44 24.5 78t62.5 48q7 30 23.5 56t40 44.5t53 29.5t61.5 11q2 0 4.5 -0.5t4.5 -0.5q27 60 82 96.5t123 36.5z" />
<glyph unicode="E" d="M294 -215h-53l80 160h53zM401 -215h-53l79 160h53zM662 -155h-45h-3l2 -2l22 -39l-33 -19l-22 38l-2 4l-1 -4l-22 -38l-34 19l22 38l3 3h-4h-44v38h44h4l-3 3l-22 38l34 20l22 -39l1 -3l2 3l22 39l33 -19l-22 -39l-2 -3l4 1h44v-39zM576 482q-32 0 -60 -10.5t-50.5 -29.5 t-38 -44.5t-21.5 -55.5q-20 7 -44 7q-27 0 -51 -10.5t-42 -28.5t-28.5 -42t-10.5 -51q-35 0 -58.5 -24.5t-23.5 -58.5t23.5 -58.5t58.5 -24.5h504q22 0 41.5 8.5t34 23.5t23 34.5t8.5 41.5q0 42 -28 73t-69 35q3 10 4 20.5t1 21.5q0 36 -13.5 67.5t-37 55t-55 37t-67.5 13.5 zM576 533q46 0 87 -17.5t72 -48.5t48.5 -72t17.5 -87v-4q14 -7 26.5 -16.5t23.5 -21.5q20 -22 30.5 -49.5t10.5 -57.5q0 -33 -12.5 -61.5t-34 -50.5t-50 -34.5t-61.5 -12.5h-504q-28 0 -52 10.5t-42 28.5t-28.5 42.5t-10.5 52.5q0 44 24.5 78t62.5 48q7 30 23.5 56t40 44.5 t53 29.5t61.5 11q2 0 4.5 -0.5t4.5 -0.5q27 60 82 96.5t123 36.5z" />
<glyph unicode="F" d="M475 -76q25 0 42.5 -17.5t17.5 -42.5t-17.5 -42t-42.5 -17t-42 17t-17 42t17 42.5t42 17.5zM576 482q-32 0 -60 -10.5t-50.5 -29.5t-38 -44.5t-21.5 -55.5q-20 7 -44 7q-27 0 -51 -10.5t-42 -28.5t-28.5 -42t-10.5 -51q-35 0 -58.5 -24.5t-23.5 -58.5t23.5 -58.5 t58.5 -24.5h504q22 0 41.5 8.5t34 23.5t23 34.5t8.5 41.5q0 42 -28 73t-69 35q3 10 4 20.5t1 21.5q0 36 -13.5 67.5t-37 55t-55 37t-67.5 13.5zM576 533q46 0 87 -17.5t72 -48.5t48.5 -72t17.5 -87v-4q14 -7 26.5 -16.5t23.5 -21.5q20 -22 30.5 -49.5t10.5 -57.5 q0 -33 -12.5 -61.5t-34 -50.5t-50 -34.5t-61.5 -12.5h-504q-28 0 -52 10.5t-42 28.5t-28.5 42.5t-10.5 52.5q0 44 24.5 78t62.5 48q7 30 23.5 56t40 44.5t53 29.5t61.5 11q2 0 4.5 -0.5t4.5 -0.5q27 60 82 96.5t123 36.5z" />
<glyph unicode="G" d="M369 -76q25 0 42 -17.5t17 -42.5t-17 -42t-42 -17t-42.5 17t-17.5 42t17.5 42.5t42.5 17.5zM581 -76q25 0 42.5 -17.5t17.5 -42.5t-17.5 -42t-42.5 -17q-24 0 -41.5 17t-17.5 42t17.5 42.5t41.5 17.5zM576 482q-32 0 -60 -10.5t-50.5 -29.5t-38 -44.5t-21.5 -55.5 q-20 7 -44 7q-27 0 -51 -10.5t-42 -28.5t-28.5 -42t-10.5 -51q-35 0 -58.5 -24.5t-23.5 -58.5t23.5 -58.5t58.5 -24.5h504q22 0 41.5 8.5t34 23.5t23 34.5t8.5 41.5q0 42 -28 73t-69 35q3 10 4 20.5t1 21.5q0 36 -13.5 67.5t-37 55t-55 37t-67.5 13.5zM576 533 q46 0 87 -17.5t72 -48.5t48.5 -72t17.5 -87v-4q14 -7 26.5 -16.5t23.5 -21.5q20 -22 30.5 -49.5t10.5 -57.5q0 -33 -12.5 -61.5t-34 -50.5t-50 -34.5t-61.5 -12.5h-504q-28 0 -52 10.5t-42 28.5t-28.5 42.5t-10.5 52.5q0 44 24.5 78t62.5 48q7 30 23.5 56t40 44.5t53 29.5 t61.5 11q2 0 4.5 -0.5t4.5 -0.5q27 60 82 96.5t123 36.5z" />
<glyph unicode="H" d="M851 266q20 -22 30.5 -49.5t10.5 -57.5q0 -33 -12.5 -61.5t-34 -50.5t-50 -34.5t-61.5 -12.5h-122l26 51h96q22 0 41.5 8.5t34 23.5t23 34.5t8.5 41.5q0 42 -28 73t-69 35q3 10 4 20.5t1 21.5q0 36 -13.5 67.5t-37 55t-55 37t-67.5 13.5q-32 0 -60 -10.5t-50.5 -29.5 t-38 -44.5t-21.5 -55.5q-20 7 -44 7q-27 0 -51 -10.5t-42 -28.5t-28.5 -42t-10.5 -51q-35 0 -58.5 -24.5t-23.5 -58.5t23.5 -58.5t58.5 -24.5h177l-26 -51h-151q-28 0 -52 10.5t-42 28.5t-28.5 42.5t-10.5 52.5q0 44 24.5 78t62.5 48q7 30 23.5 56t40 44.5t53 29.5t61.5 11 q2 0 4.5 -0.5t4.5 -0.5q27 60 82 96.5t123 36.5q46 0 87 -17.5t72 -48.5t48.5 -72t17.5 -87v-4q14 -7 26.5 -16.5t23.5 -21.5zM573 51l-53 -106h53l-79 -160h-54l54 107h-54l55 108h-52l79 159h53l-54 -108h52z" />
<glyph unicode="I" d="M643 482q-32 0 -60.5 -10.5t-51 -29.5t-37.5 -44.5t-21 -55.5q-20 7 -45 7q-27 0 -51 -10.5t-42 -28.5t-28.5 -42t-10.5 -51q-34 0 -58 -24.5t-24 -58.5t24 -58.5t58 -24.5h504q22 0 41.5 8.5t34 23.5t23 34.5t8.5 41.5q0 21 -7.5 40t-20.5 33.5t-30.5 23.5t-37.5 11 q5 22 5 42q0 36 -13.5 67.5t-37 55t-55 37t-67.5 13.5zM643 533q46 0 87 -17.5t71.5 -48.5t48 -72t17.5 -87v-4q29 -14 50 -38q20 -22 30.5 -49.5t10.5 -57.5q0 -33 -12.5 -61.5t-34 -50.5t-50 -34.5t-61.5 -12.5h-504q-27 0 -51.5 10.5t-42.5 28.5t-28.5 42.5t-10.5 52.5 q0 44 24.5 78t62.5 48q7 30 23.5 56t40 44.5t53 29.5t61.5 11q2 0 5 -0.5t5 -0.5q13 30 34 54.5t48 42t58 27t65 9.5zM265 577q0 -45 23 -80.5t60 -53.5q-17 -15 -36 -24q-36 -18 -78 -18q-36 0 -68.5 14t-56.5 38t-38 56t-14 68q0 37 14 69t38 56t56.5 38t68.5 14 q42 0 78 -18q19 -9 36 -24q-37 -19 -60 -54.5t-23 -80.5zM262 455q-23 24 -36.5 55.5t-13.5 66.5q0 36 13.5 67.5t36.5 55.5q-14 3 -28 3q-26 0 -49 -10t-40 -27t-27 -40t-10 -49t10 -48.5t27 -39.5t40 -27t49 -10q14 0 28 3z" />
<glyph unicode="J" d="M576 482q-32 0 -60 -10.5t-50.5 -29.5t-38 -44.5t-21.5 -55.5q-20 7 -44 7q-27 0 -51 -10.5t-42 -28.5t-28.5 -42t-10.5 -51q-35 0 -58.5 -24.5t-23.5 -58.5t23.5 -58.5t58.5 -24.5h504q22 0 41.5 8.5t34 23.5t23 34.5t8.5 41.5q0 42 -28 73t-69 35q3 10 4 20.5t1 21.5 q0 36 -13.5 67.5t-37 55t-55 37t-67.5 13.5zM576 533q46 0 87 -17.5t72 -48.5t48.5 -72t17.5 -87v-4q14 -7 26.5 -16.5t23.5 -21.5q20 -22 30.5 -49.5t10.5 -57.5q0 -33 -12.5 -61.5t-34 -50.5t-50 -34.5t-61.5 -12.5h-504q-28 0 -52 10.5t-42 28.5t-28.5 42.5t-10.5 52.5 q0 44 24.5 78t62.5 48q7 30 23.5 56t40 44.5t53 29.5t61.5 11q2 0 4.5 -0.5t4.5 -0.5q27 60 82 96.5t123 36.5z" />
<glyph unicode="K" d="M41 493l25 42l77 -44q-14 -20 -25 -43zM350 580q-7 1 -13.5 1h-12.5h-13t-12 -1v90h51v-90zM41 223l77 44q5 -11 11 -21.5t13 -20.5l-76 -44zM958 159q0 -33 -12.5 -61.5t-34 -50.5t-50 -34.5t-61.5 -12.5h-504q-27 0 -51.5 10.5t-42.5 28.5t-28.5 42.5t-10.5 52.5 t10.5 52.5t28.5 42.5q-26 24 -41 57.5t-15 71.5q0 36 14 68.5t38 56.5t56.5 38t68.5 14q47 0 86 -22.5t63 -58.5q31 37 75.5 58t95.5 21q46 0 87 -17.5t71.5 -48.5t48 -72t17.5 -87v-4q29 -14 50 -38q20 -22 30.5 -49.5t10.5 -57.5zM246 258q1 1 2 1t2 1q7 30 23.5 56 t40 44.5t53 29.5t61.5 11q2 0 5 -0.5t5 -0.5q0 1 2 5q-14 35 -45.5 57t-71.5 22q-26 0 -49 -10t-40 -27t-27 -40t-10 -49q0 -31 13 -57t36 -43zM907 159q0 21 -7.5 40t-20.5 33.5t-30.5 23.5t-37.5 11q5 22 5 42q0 36 -13.5 67.5t-37 55t-55 37t-67.5 13.5 q-32 0 -60.5 -10.5t-51 -29.5t-37.5 -44.5t-21 -55.5q-20 7 -45 7q-27 0 -51 -10.5t-42 -28.5t-28.5 -42t-10.5 -51q-34 0 -58 -24.5t-24 -58.5t24 -58.5t58 -24.5h504q22 0 41.5 8.5t34 23.5t23 34.5t8.5 41.5z" />
<glyph unicode="L" d="M917 266q20 -22 30.5 -49.5t10.5 -57.5q0 -33 -12.5 -61.5t-34 -50.5t-50 -34.5t-61.5 -12.5h-504q-27 0 -51.5 10.5t-42.5 28.5t-28.5 42.5t-10.5 52.5q0 30 12 56q-51 18 -84.5 63t-33.5 103q0 37 14 69t38 56t56.5 38t68.5 14q21 0 40.5 -5t37.5 -13q10 -5 19 -11 t17 -13q-37 -19 -60 -54.5t-23 -80.5q0 -23 6 -44q24 40 65.5 64.5t91.5 24.5q2 0 5 -0.5t5 -0.5q13 30 34 54.5t48 42t58 27t65 9.5q46 0 87 -17.5t71.5 -48.5t48 -72t17.5 -87v-4q29 -14 50 -38zM108 356q0 -45 28.5 -79t70.5 -44q14 14 36 24q-14 21 -22.5 46t-8.5 53 q0 36 13.5 67.5t36.5 55.5q-14 3 -28 3q-26 0 -49 -10t-40 -27t-27 -40t-10 -49zM800 51q22 0 41.5 8.5t34 23.5t23 34.5t8.5 41.5q0 21 -7.5 40t-20.5 33.5t-30.5 23.5t-37.5 11q5 22 5 42q0 36 -13.5 67.5t-37 55t-55 37t-67.5 13.5q-32 0 -60.5 -10.5t-51 -29.5 t-37.5 -44.5t-21 -55.5q-20 7 -45 7q-27 0 -51 -10.5t-42 -28.5t-28.5 -42t-10.5 -51q-34 0 -58 -24.5t-24 -58.5t24 -58.5t58 -24.5h504z" />
<glyph unicode="M" d="M620 122q23 -24 36.5 -56t13.5 -68q0 -37 -14 -69t-38 -56t-56 -38t-68 -14q-37 0 -69 14t-56 38t-38 56t-14 69t14 69t38 56v455q0 26 10 48.5t27 39.5t39.5 27t48.5 10t49 -10t40 -27t27 -39.5t10 -48.5v-456zM421 100q-24 -17 -38.5 -43.5t-14.5 -58.5q0 -26 10 -49 t27 -40t40 -27t49 -10t48.5 10t39.5 27t27 40t10 49q0 32 -14.5 58.5t-38.5 43.5v1v58v419q0 29 -21 50.5t-51 21.5t-51 -21.5t-21 -50.5v-477zM530 79q23 -11 38 -32.5t15 -48.5q0 -37 -26 -63t-63 -26t-62.5 26t-25.5 63q0 27 15 48.5t38 32.5v507h71v-507zM671 157h70 v-35h-70v35zM668 263h73v-35h-73v35zM671 369h70v-35h-70v35zM671 476h70v-36h-70v36zM671 582h141v-35h-141v35z" />
<glyph unicode="N" d="M671 157h141v-35h-141v35zM668 263h73v-35h-73v35zM671 369h70v-35h-70v35zM671 476h70v-36h-70v36zM671 582h70v-35h-70v35zM620 122q23 -24 36.5 -56t13.5 -68q0 -37 -14 -69t-38 -56t-56 -38t-68 -14q-37 0 -69 14t-56 38t-38 56t-14 69t14 69t38 56v455q0 26 10 48.5 t27 39.5t39.5 27t48.5 10t49 -10t40 -27t27 -39.5t10 -48.5v-456zM421 100q-24 -17 -38.5 -43.5t-14.5 -58.5q0 -26 10 -49t27 -40t40 -27t49 -10t48.5 10t39.5 27t27 40t10 49q0 32 -14.5 58.5t-38.5 43.5v1v58v419q0 29 -21 50.5t-51 21.5t-51 -21.5t-21 -50.5v-477z M530 79q23 -11 38 -32.5t15 -48.5q0 -37 -26 -63t-63 -26t-62.5 26t-25.5 63q0 27 15 48.5t38 32.5v60h71v-60z" />
<glyph unicode="O" d="M795 -91h-432l25 51h407v-51zM795 -177h-475l27 51h448v-51zM189 -40h140l-72 -142zM576 482q-32 0 -60 -10.5t-50.5 -29.5t-38 -44.5t-21.5 -55.5q-20 7 -44 7q-27 0 -51 -10.5t-42 -28.5t-28.5 -42t-10.5 -51q-35 0 -58.5 -24.5t-23.5 -58.5t23.5 -58.5t58.5 -24.5h504 q22 0 41.5 8.5t34 23.5t23 34.5t8.5 41.5q0 42 -28 73t-69 35q3 10 4 20.5t1 21.5q0 36 -13.5 67.5t-37 55t-55 37t-67.5 13.5zM576 533q46 0 87 -17.5t72 -48.5t48.5 -72t17.5 -87v-4q14 -7 26.5 -16.5t23.5 -21.5q20 -22 30.5 -49.5t10.5 -57.5q0 -33 -12.5 -61.5 t-34 -50.5t-50 -34.5t-61.5 -12.5h-504q-28 0 -52 10.5t-42 28.5t-28.5 42.5t-10.5 52.5q0 44 24.5 78t62.5 48q7 30 23.5 56t40 44.5t53 29.5t61.5 11q2 0 4.5 -0.5t4.5 -0.5q27 60 82 96.5t123 36.5z" />
<glyph unicode="P" d="M312 -179h-53l44 88h53zM418 -179h-53l44 88h54zM525 -179h-54l45 88h53zM631 -179h-53l44 88h53zM576 482q-32 0 -60 -10.5t-50.5 -29.5t-38 -44.5t-21.5 -55.5q-20 7 -44 7q-27 0 -51 -10.5t-42 -28.5t-28.5 -42t-10.5 -51q-35 0 -58.5 -24.5t-23.5 -58.5t23.5 -58.5 t58.5 -24.5h504q22 0 41.5 8.5t34 23.5t23 34.5t8.5 41.5q0 42 -28 73t-69 35q3 10 4 20.5t1 21.5q0 36 -13.5 67.5t-37 55t-55 37t-67.5 13.5zM576 533q46 0 87 -17.5t72 -48.5t48.5 -72t17.5 -87v-4q14 -7 26.5 -16.5t23.5 -21.5q20 -22 30.5 -49.5t10.5 -57.5 q0 -33 -12.5 -61.5t-34 -50.5t-50 -34.5t-61.5 -12.5h-504q-28 0 -52 10.5t-42 28.5t-28.5 42.5t-10.5 52.5q0 44 24.5 78t62.5 48q7 30 23.5 56t40 44.5t53 29.5t61.5 11q2 0 4.5 -0.5t4.5 -0.5q27 60 82 96.5t123 36.5z" />
<glyph unicode="Q" d="M418 -179h-53l44 88h54zM525 -179h-54l45 88h53zM631 -179h-53l44 88h53zM356 -91l-45 -91l-45 91h90zM576 482q-32 0 -60 -10.5t-50.5 -29.5t-38 -44.5t-21.5 -55.5q-20 7 -44 7q-27 0 -51 -10.5t-42 -28.5t-28.5 -42t-10.5 -51q-35 0 -58.5 -24.5t-23.5 -58.5 t23.5 -58.5t58.5 -24.5h504q22 0 41.5 8.5t34 23.5t23 34.5t8.5 41.5q0 42 -28 73t-69 35q3 10 4 20.5t1 21.5q0 36 -13.5 67.5t-37 55t-55 37t-67.5 13.5zM576 533q46 0 87 -17.5t72 -48.5t48.5 -72t17.5 -87v-4q14 -7 26.5 -16.5t23.5 -21.5q20 -22 30.5 -49.5t10.5 -57.5 q0 -33 -12.5 -61.5t-34 -50.5t-50 -34.5t-61.5 -12.5h-504q-28 0 -52 10.5t-42 28.5t-28.5 42.5t-10.5 52.5q0 44 24.5 78t62.5 48q7 30 23.5 56t40 44.5t53 29.5t61.5 11q2 0 4.5 -0.5t4.5 -0.5q27 60 82 96.5t123 36.5z" />
<glyph unicode="R" d="M401 -215h-53l79 160h53zM507 -215h-53l79 160h54zM613 -215h-53l80 160h53zM215 -55h158l-80 -161zM576 482q-32 0 -60 -10.5t-50.5 -29.5t-38 -44.5t-21.5 -55.5q-20 7 -44 7q-27 0 -51 -10.5t-42 -28.5t-28.5 -42t-10.5 -51q-35 0 -58.5 -24.5t-23.5 -58.5t23.5 -58.5 t58.5 -24.5h504q22 0 41.5 8.5t34 23.5t23 34.5t8.5 41.5q0 42 -28 73t-69 35q3 10 4 20.5t1 21.5q0 36 -13.5 67.5t-37 55t-55 37t-67.5 13.5zM576 533q46 0 87 -17.5t72 -48.5t48.5 -72t17.5 -87v-4q14 -7 26.5 -16.5t23.5 -21.5q20 -22 30.5 -49.5t10.5 -57.5 q0 -33 -12.5 -61.5t-34 -50.5t-50 -34.5t-61.5 -12.5h-504q-28 0 -52 10.5t-42 28.5t-28.5 42.5t-10.5 52.5q0 44 24.5 78t62.5 48q7 30 23.5 56t40 44.5t53 29.5t61.5 11q2 0 4.5 -0.5t4.5 -0.5q27 60 82 96.5t123 36.5z" />
<glyph unicode="S" d="M188 -215h-53l80 160h53zM294 -215h-53l80 160h53zM401 -215h-53l79 160h53zM507 -215h-53l79 160h54zM613 -215h-53l80 160h53zM719 -215h-53l80 160h53zM576 482q-32 0 -60 -10.5t-50.5 -29.5t-38 -44.5t-21.5 -55.5q-20 7 -44 7q-27 0 -51 -10.5t-42 -28.5t-28.5 -42 t-10.5 -51q-35 0 -58.5 -24.5t-23.5 -58.5t23.5 -58.5t58.5 -24.5h504q22 0 41.5 8.5t34 23.5t23 34.5t8.5 41.5q0 42 -28 73t-69 35q3 10 4 20.5t1 21.5q0 36 -13.5 67.5t-37 55t-55 37t-67.5 13.5zM576 533q46 0 87 -17.5t72 -48.5t48.5 -72t17.5 -87v-4q14 -7 26.5 -16.5 t23.5 -21.5q20 -22 30.5 -49.5t10.5 -57.5q0 -33 -12.5 -61.5t-34 -50.5t-50 -34.5t-61.5 -12.5h-504q-28 0 -52 10.5t-42 28.5t-28.5 42.5t-10.5 52.5q0 44 24.5 78t62.5 48q7 30 23.5 56t40 44.5t53 29.5t61.5 11q2 0 4.5 -0.5t4.5 -0.5q27 60 82 96.5t123 36.5z" />
<glyph unicode="T" d="M556 -155h-45h-3l2 -2l22 -39l-33 -19l-22 38l-2 4l-1 -4l-22 -38l-34 19l22 38l3 3h-5h-43l-1 38h44h5l-3 3l-22 38l33 20l23 -39l1 -3l2 3l22 39l33 -19l-22 -39l-2 -3l3 1h45v-39zM343 -155h-44h-4l2 -2l23 -39l-33 -19l-23 38l-1 4l-2 -4l-22 -38l-33 19l22 38l2 3 h-4h-44v38h44h4l-2 3l-22 38l33 20l22 -39l2 -3l1 3l22 39l34 -19l-23 -39l-2 -3l4 1h44v-39zM768 -155h-44h-4l2 -2l23 -39l-34 -19l-22 38l-1 4l-2 -4l-22 -38l-33 19l22 38l2 3h-4h-44v38h44h4l-2 3l-22 38l33 20l22 -39l2 -3l1 3l22 39l33 -19l-22 -39l-2 -3l4 1h44v-39 zM576 482q-32 0 -60 -10.5t-50.5 -29.5t-38 -44.5t-21.5 -55.5q-20 7 -44 7q-27 0 -51 -10.5t-42 -28.5t-28.5 -42t-10.5 -51q-35 0 -58.5 -24.5t-23.5 -58.5t23.5 -58.5t58.5 -24.5h504q22 0 41.5 8.5t34 23.5t23 34.5t8.5 41.5q0 42 -28 73t-69 35q3 10 4 20.5t1 21.5 q0 36 -13.5 67.5t-37 55t-55 37t-67.5 13.5zM576 533q46 0 87 -17.5t72 -48.5t48.5 -72t17.5 -87v-4q14 -7 26.5 -16.5t23.5 -21.5q20 -22 30.5 -49.5t10.5 -57.5q0 -33 -12.5 -61.5t-34 -50.5t-50 -34.5t-61.5 -12.5h-504q-28 0 -52 10.5t-42 28.5t-28.5 42.5t-10.5 52.5 q0 44 24.5 78t62.5 48q7 30 23.5 56t40 44.5t53 29.5t61.5 11q2 0 4.5 -0.5t4.5 -0.5q27 60 82 96.5t123 36.5z" />
<glyph unicode="U" d="M450 -155h-45h-3l2 -2l22 -39l-33 -19l-22 38l-2 4l-2 -4l-22 -38l-33 19l22 38l2 3h-4h-44v38h44h4l-2 3l-22 38l33 20l22 -39l2 -3l1 3l23 39l33 -19l-22 -39l-3 -3l4 1h45v-39zM511 -80h239v-40h-239v40zM511 -155h195v-40h-195v40zM576 482q-32 0 -60 -10.5 t-50.5 -29.5t-38 -44.5t-21.5 -55.5q-20 7 -44 7q-27 0 -51 -10.5t-42 -28.5t-28.5 -42t-10.5 -51q-35 0 -58.5 -24.5t-23.5 -58.5t23.5 -58.5t58.5 -24.5h504q22 0 41.5 8.5t34 23.5t23 34.5t8.5 41.5q0 42 -28 73t-69 35q3 10 4 20.5t1 21.5q0 36 -13.5 67.5t-37 55 t-55 37t-67.5 13.5zM576 533q46 0 87 -17.5t72 -48.5t48.5 -72t17.5 -87v-4q14 -7 26.5 -16.5t23.5 -21.5q20 -22 30.5 -49.5t10.5 -57.5q0 -33 -12.5 -61.5t-34 -50.5t-50 -34.5t-61.5 -12.5h-504q-28 0 -52 10.5t-42 28.5t-28.5 42.5t-10.5 52.5q0 44 24.5 78t62.5 48 q7 30 23.5 56t40 44.5t53 29.5t61.5 11q2 0 4.5 -0.5t4.5 -0.5q27 60 82 96.5t123 36.5z" />
<glyph unicode="V" d="M556 -155h-45h-3l2 -2l22 -39l-33 -19l-22 38l-2 4l-1 -4l-22 -38l-34 19l22 38l3 3h-5h-43l-1 38h44h5l-3 3l-22 38l33 20l23 -39l1 -3l2 3l22 39l33 -19l-22 -39l-2 -3l3 1h45v-39zM343 -155h-44h-4l2 -2l23 -39l-33 -19l-23 38l-1 4l-2 -4l-22 -38l-33 19l22 38l2 3 h-4h-44v38h44h4l-2 3l-22 38l33 20l22 -39l2 -3l1 3l22 39l34 -19l-23 -39l-2 -3l4 1h44v-39zM617 -80h239v-40h-239v40zM617 -155h195v-40h-195v40zM576 482q-32 0 -60 -10.5t-50.5 -29.5t-38 -44.5t-21.5 -55.5q-20 7 -44 7q-27 0 -51 -10.5t-42 -28.5t-28.5 -42 t-10.5 -51q-35 0 -58.5 -24.5t-23.5 -58.5t23.5 -58.5t58.5 -24.5h504q22 0 41.5 8.5t34 23.5t23 34.5t8.5 41.5q0 42 -28 73t-69 35q3 10 4 20.5t1 21.5q0 36 -13.5 67.5t-37 55t-55 37t-67.5 13.5zM576 533q46 0 87 -17.5t72 -48.5t48.5 -72t17.5 -87v-4q14 -7 26.5 -16.5 t23.5 -21.5q20 -22 30.5 -49.5t10.5 -57.5q0 -33 -12.5 -61.5t-34 -50.5t-50 -34.5t-61.5 -12.5h-504q-28 0 -52 10.5t-42 28.5t-28.5 42.5t-10.5 52.5q0 44 24.5 78t62.5 48q7 30 23.5 56t40 44.5t53 29.5t61.5 11q2 0 4.5 -0.5t4.5 -0.5q27 60 82 96.5t123 36.5z" />
<glyph unicode="W" d="M576 623q-32 0 -60 -10.5t-50.5 -29.5t-38 -44.5t-21.5 -55.5q-20 7 -44 7q-27 0 -51 -10.5t-42 -28.5t-28.5 -42t-10.5 -51q-35 0 -58.5 -24.5t-23.5 -58.5t23.5 -58.5t58.5 -24.5h504q22 0 41.5 8.5t34 23.5t23 34.5t8.5 41.5q0 42 -28 73t-69 35q3 10 4 20.5t1 21.5 q0 36 -13.5 67.5t-37 55t-55 37t-67.5 13.5zM576 674q46 0 87 -17.5t72 -48.5t48.5 -72t17.5 -87v-4q14 -7 26.5 -16.5t23.5 -21.5q20 -22 30.5 -49.5t10.5 -57.5q0 -33 -12.5 -61.5t-34 -50.5t-50 -34.5t-61.5 -12.5h-504q-28 0 -52 10.5t-42 28.5t-28.5 42.5t-10.5 52.5 q0 44 24.5 78t62.5 48q7 30 23.5 56t40 44.5t53 29.5t61.5 11q2 0 4.5 -0.5t4.5 -0.5q27 60 82 96.5t123 36.5zM259 52v-218h469v113l-101 -43v43l-100 -43v43l-101 -43v43l-100 -43v148h-67zM375 52v-74l32 14l68 29v-43l33 14l68 29v-43l32 14l68 29v-43l32 14l68 29v-74 l1 -113v-49h-49h-469h-49v49v218v49h49h67h49v-49z" />
<glyph unicode="X" d="M600 -80h239v-40h-239v40zM600 -155h195v-40h-195v40zM146 -80q8 0 14 -6t6 -14t-6 -14t-14 -6t-14 6t-6 14t6 14t14 6zM193 -58q11 0 11 -11t-11 -11t-11 11t11 11zM297 -72q11 0 19 -8t8 -20q0 -11 -8 -19t-19 -8q-12 0 -20 8t-8 19q0 12 8 20t20 8zM234 -155 q16 0 16 -17q0 -16 -16 -16q-17 0 -17 16q0 17 17 17zM329 -155q10 0 16.5 -6.5t6.5 -16.5t-6.5 -16.5t-16.5 -6.5t-17 6.5t-7 16.5t7 16.5t17 6.5zM375 -100q10 0 16.5 -6.5t6.5 -16.5t-6.5 -16.5t-16.5 -6.5t-16.5 6.5t-6.5 16.5t6.5 16.5t16.5 6.5zM445 -178q11 0 11 -11 t-11 -11t-11 11t11 11zM213 -111q8 0 14.5 -6t6.5 -14t-6.5 -14.5t-14.5 -6.5t-14 6.5t-6 14.5t6 14t14 6zM315 122q10 0 10 -10t-10 -10t-10 10t10 10zM370 189q10 0 17 -7.5t7 -17.5q0 -11 -7 -18t-17 -7q-11 0 -18 7t-7 18q0 10 7 17.5t18 7.5zM470 122q6 0 10.5 -4.5 t4.5 -10.5t-4.5 -10t-10.5 -4q-14 0 -14 14q0 6 4 10.5t10 4.5zM563 217q11 0 18.5 -7.5t7.5 -18.5t-7.5 -18t-18.5 -7t-18 7t-7 18t7 18.5t18 7.5zM719 137q12 0 12 -13q0 -12 -12 -12q-13 0 -13 12q0 13 13 13zM651 112q11 0 11 -11q0 -10 -11 -10q-10 0 -10 10 q0 11 10 11zM760 192q10 0 10 -9q0 -10 -10 -10t-10 10q0 9 10 9zM313 281q16 0 16 -16t-16 -16t-16 16t16 16zM234 155q7 0 11.5 -5t4.5 -12q0 -16 -16 -16q-17 0 -17 16q0 7 4.5 12t12.5 5zM115 15q8 0 13.5 -5t5.5 -13q0 -19 -19 -19q-8 0 -13 5.5t-5 13.5t5 13t13 5z M64 -58q9 0 9 -8q0 -9 -9 -9t-9 9q0 8 9 8zM94 -131q9 0 15 -6.5t6 -14.5q0 -9 -6 -15.5t-15 -6.5q-8 0 -14.5 6.5t-6.5 15.5q0 8 6.5 14.5t14.5 6.5zM391 102q6 0 10.5 -4.5t4.5 -11.5q0 -6 -4.5 -10.5t-10.5 -4.5q-7 0 -11.5 4.5t-4.5 10.5q0 16 16 16zM551 122 q12 0 12 -13t-12 -13q-13 0 -13 13t13 13zM381 -44q11 0 11 -11t-11 -11t-11 11t11 11zM485 -87q13 0 22.5 -9.5t9.5 -23.5q0 -13 -9.5 -22.5t-22.5 -9.5q-14 0 -23 9.5t-9 22.5q0 14 9 23.5t23 9.5zM576 482q-32 0 -60 -10.5t-50.5 -29.5t-38 -44.5t-21.5 -55.5 q-20 7 -44 7q-27 0 -51 -10.5t-42 -28.5t-28.5 -42t-10.5 -51q-35 0 -58.5 -24.5t-23.5 -58.5t23.5 -58.5t58.5 -24.5h504q22 0 41.5 8.5t34 23.5t23 34.5t8.5 41.5q0 42 -28 73t-69 35q3 10 4 20.5t1 21.5q0 36 -13.5 67.5t-37 55t-55 37t-67.5 13.5zM576 533 q46 0 87 -17.5t72 -48.5t48.5 -72t17.5 -87v-4q14 -7 26.5 -16.5t23.5 -21.5q20 -22 30.5 -49.5t10.5 -57.5q0 -33 -12.5 -61.5t-34 -50.5t-50 -34.5t-61.5 -12.5h-504q-28 0 -52 10.5t-42 28.5t-28.5 42.5t-10.5 52.5q0 44 24.5 78t62.5 48q7 30 23.5 56t40 44.5t53 29.5 t61.5 11q2 0 4.5 -0.5t4.5 -0.5q27 60 82 96.5t123 36.5z" />
<glyph unicode="Y" d="M324 581h-13t-12 -1v90h51v-90q-7 1 -13.5 1h-12.5zM234 563l-45 77l-43 -24l45 -77q10 7 21 13t22 11zM958 159q0 -33 -12.5 -61.5t-34 -50.5t-50 -34.5t-61.5 -12.5h-33l26 51h7q22 0 41.5 8.5t34 23.5t23 34.5t8.5 41.5q0 21 -7.5 40t-20.5 33.5t-30.5 23.5t-37.5 11 q5 22 5 42q0 36 -13.5 67.5t-37 55t-55 37t-67.5 13.5q-32 0 -60.5 -10.5t-51 -29.5t-37.5 -44.5t-21 -55.5q-20 7 -45 7q-27 0 -51 -10.5t-42 -28.5t-28.5 -42t-10.5 -51q-34 0 -58 -24.5t-24 -58.5t24 -58.5t58 -24.5h266l-26 -51h-240q-27 0 -51.5 10.5t-42.5 28.5 t-28.5 42.5t-10.5 52.5t10.5 52.5t28.5 42.5q-26 24 -41 57.5t-15 71.5q0 36 14 68.5t38 56.5t56.5 38t68.5 14q47 0 86 -22.5t63 -58.5q31 37 75.5 58t95.5 21q46 0 87 -17.5t71.5 -48.5t48 -72t17.5 -87v-4q29 -14 50 -38q20 -22 30.5 -49.5t10.5 -57.5zM440 405 q-14 35 -45.5 57t-71.5 22q-26 0 -49 -10t-40 -27t-27 -40t-10 -49q0 -31 13 -57t36 -43q1 1 2 1t2 1q7 30 23.5 56t40 44.5t53 29.5t61.5 11q2 0 5 -0.5t5 -0.5q0 1 2 5zM501 616l-43 24l-44 -78q11 -5 21.5 -10.5t20.5 -13.5zM41 493l77 -45q11 23 25 43l-77 44zM99 358 v12t1 13h-87v-49h87q-1 7 -1 12.5v11.5zM41 223l25 -42l76 44q-7 10 -13 20.5t-11 21.5zM676 51l54 108h-53l-79 -159h52l-55 -108h53l-53 -107h53l80 160h-53l53 106h-52zM516 -116h-44l-4 -1l2 3l22 39l-33 19l-22 -39l-2 -3l-1 3l-23 39l-33 -20l22 -38l3 -3h-4h-44v-38 h44h4l-3 -3l-22 -38l34 -19l22 38l1 4l2 -4l22 -38l33 19l-22 39l-2 2h3h45v39z" />
<glyph unicode="Z" d="M851 266q20 -22 30.5 -49.5t10.5 -57.5q0 -33 -12.5 -61.5t-34 -50.5t-50 -34.5t-61.5 -12.5h-33l25 51h8q22 0 41.5 8.5t34 23.5t23 34.5t8.5 41.5q0 42 -28 73t-69 35q3 10 4 20.5t1 21.5q0 36 -13.5 67.5t-37 55t-55 37t-67.5 13.5q-32 0 -60 -10.5t-50.5 -29.5 t-38 -44.5t-21.5 -55.5q-20 7 -44 7q-27 0 -51 -10.5t-42 -28.5t-28.5 -42t-10.5 -51q-35 0 -58.5 -24.5t-23.5 -58.5t23.5 -58.5t58.5 -24.5h266l-26 -51h-240q-28 0 -52 10.5t-42 28.5t-28.5 42.5t-10.5 52.5q0 44 24.5 78t62.5 48q7 30 23.5 56t40 44.5t53 29.5t61.5 11 q2 0 4.5 -0.5t4.5 -0.5q27 60 82 96.5t123 36.5q46 0 87 -17.5t72 -48.5t48.5 -72t17.5 -87v-4q14 -7 26.5 -16.5t23.5 -21.5zM662 51l-53 -106h53l-80 -160h-53l53 107h-53l54 108h-52l80 159h53l-54 -108h52zM450 -155h-45h-3l2 -2l22 -39l-33 -19l-22 38l-2 4l-2 -4 l-22 -38l-33 19l22 38l2 3h-4h-44v38h44h4l-2 3l-22 38l33 20l22 -39l2 -3l1 3l23 39l33 -19l-22 -39l-3 -3l4 1h45v-39z" />
<glyph unicode="[" d="M851 266q20 -22 30.5 -49.5t10.5 -57.5q0 -33 -12.5 -61.5t-34 -50.5t-50 -34.5t-61.5 -12.5h-33l25 51h8q22 0 41.5 8.5t34 23.5t23 34.5t8.5 41.5q0 42 -28 73t-69 35q3 10 4 20.5t1 21.5q0 36 -13.5 67.5t-37 55t-55 37t-67.5 13.5q-32 0 -60 -10.5t-50.5 -29.5 t-38 -44.5t-21.5 -55.5q-20 7 -44 7q-27 0 -51 -10.5t-42 -28.5t-28.5 -42t-10.5 -51q-35 0 -58.5 -24.5t-23.5 -58.5t23.5 -58.5t58.5 -24.5h266l-26 -51h-240q-28 0 -52 10.5t-42 28.5t-28.5 42.5t-10.5 52.5q0 44 24.5 78t62.5 48q7 30 23.5 56t40 44.5t53 29.5t61.5 11 q2 0 4.5 -0.5t4.5 -0.5q27 60 82 96.5t123 36.5q46 0 87 -17.5t72 -48.5t48.5 -72t17.5 -87v-4q14 -7 26.5 -16.5t23.5 -21.5zM662 51l-53 -106h53l-80 -160h-53l53 107h-53l54 108h-52l80 159h53l-54 -108h52zM369 -76q25 0 42 -17.5t17 -42.5t-17 -42t-42 -17t-42.5 17 t-17.5 42t17.5 42.5t42.5 17.5z" />
<glyph unicode="\" d="M488 482q-32 0 -60.5 -10.5t-51 -29.5t-37.5 -44.5t-21 -55.5q-20 7 -45 7q-27 0 -51 -10.5t-42 -28.5t-28.5 -42t-10.5 -51q-34 0 -58 -24.5t-24 -58.5t24 -58.5t58 -24.5h504q22 0 41.5 8.5t34 23.5t23 34.5t8.5 41.5q0 21 -7.5 40t-20.5 33.5t-30.5 23.5t-37.5 11 q5 22 5 42q0 36 -13.5 67.5t-37 55t-55 37t-67.5 13.5zM488 533q46 0 87 -17.5t71.5 -48.5t48 -72t17.5 -87v-4q29 -14 50 -38q20 -22 30.5 -49.5t10.5 -57.5q0 -33 -12.5 -61.5t-34 -50.5t-50 -34.5t-61.5 -12.5h-504q-27 0 -51.5 10.5t-42.5 28.5t-28.5 42.5t-10.5 52.5 q0 44 24.5 78t62.5 48q7 30 23.5 56t40 44.5t53 29.5t61.5 11q3 0 5.5 -0.5t4.5 -0.5q13 30 34 54.5t48 42t58 27t65 9.5zM861 161h130v-50h-136q6 22 6 48v2zM768 338q-1 20 -8 45h231v-51h-215q-2 2 -4 3t-4 3zM852 221q-7 26 -23 51h162v-51h-139z" />
<glyph unicode="]" d="M215 577q0 -45 23 -80.5t60 -53.5q-17 -15 -36 -24q-36 -18 -78 -18q-36 0 -68.5 14t-56.5 38t-38 56t-14 68q0 37 14 69t38 56t56.5 38t68.5 14q42 0 78 -18q19 -9 36 -24q-37 -19 -60 -54.5t-23 -80.5zM212 455q-23 24 -36.5 55.5t-13.5 66.5q0 36 13.5 67.5t36.5 55.5 q-14 3 -28 3q-26 0 -49 -10t-40 -27t-27 -40t-10 -49t10 -48.5t27 -39.5t40 -27t49 -10q14 0 28 3zM620 122q23 -24 36.5 -56t13.5 -68q0 -37 -14 -69t-38 -56t-56 -38t-68 -14q-37 0 -69 14t-56 38t-38 56t-14 69t14 69t38 56v455q0 26 10 48.5t27 39.5t39.5 27t48.5 10 t49 -10t40 -27t27 -39.5t10 -48.5v-456zM421 100q-24 -17 -38.5 -43.5t-14.5 -58.5q0 -26 10 -49t27 -40t40 -27t49 -10t48.5 10t39.5 27t27 40t10 49q0 32 -14.5 58.5t-38.5 43.5v1v58v419q0 29 -21 50.5t-51 21.5t-51 -21.5t-21 -50.5v-477zM530 79q23 -11 38 -32.5 t15 -48.5q0 -37 -26 -63t-63 -26t-62.5 26t-25.5 63q0 27 15 48.5t38 32.5v507h71v-507zM671 157h70v-35h-70v35zM668 263h73v-35h-73v35zM671 369h70v-35h-70v35zM671 476h70v-36h-70v36zM671 582h141v-35h-141v35z" />
<glyph unicode="^" d="M215 577q0 -45 23 -80.5t60 -53.5q-17 -15 -36 -24q-36 -18 -78 -18q-36 0 -68.5 14t-56.5 38t-38 56t-14 68q0 37 14 69t38 56t56.5 38t68.5 14q42 0 78 -18q19 -9 36 -24q-37 -19 -60 -54.5t-23 -80.5zM212 455q-23 24 -36.5 55.5t-13.5 66.5q0 36 13.5 67.5t36.5 55.5 q-14 3 -28 3q-26 0 -49 -10t-40 -27t-27 -40t-10 -49t10 -48.5t27 -39.5t40 -27t49 -10q14 0 28 3zM671 157h141v-35h-141v35zM668 263h73v-35h-73v35zM671 369h70v-35h-70v35zM671 476h70v-36h-70v36zM671 582h70v-35h-70v35zM620 122q23 -24 36.5 -56t13.5 -68 q0 -37 -14 -69t-38 -56t-56 -38t-68 -14q-37 0 -69 14t-56 38t-38 56t-14 69t14 69t38 56v455q0 26 10 48.5t27 39.5t39.5 27t48.5 10t49 -10t40 -27t27 -39.5t10 -48.5v-456zM421 100q-24 -17 -38.5 -43.5t-14.5 -58.5q0 -26 10 -49t27 -40t40 -27t49 -10t48.5 10t39.5 27 t27 40t10 49q0 32 -14.5 58.5t-38.5 43.5v1v58v419q0 29 -21 50.5t-51 21.5t-51 -21.5t-21 -50.5v-477zM530 79q23 -11 38 -32.5t15 -48.5q0 -37 -26 -63t-63 -26t-62.5 26t-25.5 63q0 27 15 48.5t38 32.5v60h71v-60z" />
<glyph unicode="_" d="M795 -177h-602v51h602v-51zM576 482q-32 0 -60 -10.5t-50.5 -29.5t-38 -44.5t-21.5 -55.5q-20 7 -44 7q-27 0 -51 -10.5t-42 -28.5t-28.5 -42t-10.5 -51q-35 0 -58.5 -24.5t-23.5 -58.5t23.5 -58.5t58.5 -24.5h504q22 0 41.5 8.5t34 23.5t23 34.5t8.5 41.5q0 42 -28 73 t-69 35q3 10 4 20.5t1 21.5q0 36 -13.5 67.5t-37 55t-55 37t-67.5 13.5zM576 533q46 0 87 -17.5t72 -48.5t48.5 -72t17.5 -87v-4q14 -7 26.5 -16.5t23.5 -21.5q20 -22 30.5 -49.5t10.5 -57.5q0 -33 -12.5 -61.5t-34 -50.5t-50 -34.5t-61.5 -12.5h-504q-28 0 -52 10.5 t-42 28.5t-28.5 42.5t-10.5 52.5q0 44 24.5 78t62.5 48q7 30 23.5 56t40 44.5t53 29.5t61.5 11q2 0 4.5 -0.5t4.5 -0.5q27 60 82 96.5t123 36.5z" />
<glyph unicode="`" d="M795 -91h-602v51h602v-51zM795 -177h-602v51h602v-51zM576 482q-32 0 -60 -10.5t-50.5 -29.5t-38 -44.5t-21.5 -55.5q-20 7 -44 7q-27 0 -51 -10.5t-42 -28.5t-28.5 -42t-10.5 -51q-35 0 -58.5 -24.5t-23.5 -58.5t23.5 -58.5t58.5 -24.5h504q22 0 41.5 8.5t34 23.5 t23 34.5t8.5 41.5q0 42 -28 73t-69 35q3 10 4 20.5t1 21.5q0 36 -13.5 67.5t-37 55t-55 37t-67.5 13.5zM576 533q46 0 87 -17.5t72 -48.5t48.5 -72t17.5 -87v-4q14 -7 26.5 -16.5t23.5 -21.5q20 -22 30.5 -49.5t10.5 -57.5q0 -33 -12.5 -61.5t-34 -50.5t-50 -34.5 t-61.5 -12.5h-504q-28 0 -52 10.5t-42 28.5t-28.5 42.5t-10.5 52.5q0 44 24.5 78t62.5 48q7 30 23.5 56t40 44.5t53 29.5t61.5 11q2 0 4.5 -0.5t4.5 -0.5q27 60 82 96.5t123 36.5z" />
<glyph unicode="a" d="M795 -91h-432l25 51h407v-51zM795 -177h-475l27 51h448v-51zM189 -40h140l-72 -142zM576 482q-32 0 -60 -10.5t-50.5 -29.5t-38 -44.5t-21.5 -55.5q-20 7 -44 7q-27 0 -51 -10.5t-42 -28.5t-28.5 -42t-10.5 -51q-35 0 -58.5 -24.5t-23.5 -58.5t23.5 -58.5t58.5 -24.5h504 q22 0 41.5 8.5t34 23.5t23 34.5t8.5 41.5q0 42 -28 73t-69 35q3 10 4 20.5t1 21.5q0 36 -13.5 67.5t-37 55t-55 37t-67.5 13.5zM576 533q46 0 87 -17.5t72 -48.5t48.5 -72t17.5 -87v-4q14 -7 26.5 -16.5t23.5 -21.5q20 -22 30.5 -49.5t10.5 -57.5q0 -33 -12.5 -61.5 t-34 -50.5t-50 -34.5t-61.5 -12.5h-504q-28 0 -52 10.5t-42 28.5t-28.5 42.5t-10.5 52.5q0 44 24.5 78t62.5 48q7 30 23.5 56t40 44.5t53 29.5t61.5 11q2 0 4.5 -0.5t4.5 -0.5q27 60 82 96.5t123 36.5z" />
<glyph unicode="b" d="M312 -179h-53l44 88h53zM418 -179h-53l44 88h54zM525 -179h-54l45 88h53zM631 -179h-53l44 88h53zM576 482q-32 0 -60 -10.5t-50.5 -29.5t-38 -44.5t-21.5 -55.5q-20 7 -44 7q-27 0 -51 -10.5t-42 -28.5t-28.5 -42t-10.5 -51q-35 0 -58.5 -24.5t-23.5 -58.5t23.5 -58.5 t58.5 -24.5h504q22 0 41.5 8.5t34 23.5t23 34.5t8.5 41.5q0 42 -28 73t-69 35q3 10 4 20.5t1 21.5q0 36 -13.5 67.5t-37 55t-55 37t-67.5 13.5zM576 533q46 0 87 -17.5t72 -48.5t48.5 -72t17.5 -87v-4q14 -7 26.5 -16.5t23.5 -21.5q20 -22 30.5 -49.5t10.5 -57.5 q0 -33 -12.5 -61.5t-34 -50.5t-50 -34.5t-61.5 -12.5h-504q-28 0 -52 10.5t-42 28.5t-28.5 42.5t-10.5 52.5q0 44 24.5 78t62.5 48q7 30 23.5 56t40 44.5t53 29.5t61.5 11q2 0 4.5 -0.5t4.5 -0.5q27 60 82 96.5t123 36.5z" />
<glyph unicode="c" d="M418 -179h-53l44 88h54zM525 -179h-54l45 88h53zM631 -179h-53l44 88h53zM356 -91l-45 -91l-45 91h90zM576 482q-32 0 -60 -10.5t-50.5 -29.5t-38 -44.5t-21.5 -55.5q-20 7 -44 7q-27 0 -51 -10.5t-42 -28.5t-28.5 -42t-10.5 -51q-35 0 -58.5 -24.5t-23.5 -58.5 t23.5 -58.5t58.5 -24.5h504q22 0 41.5 8.5t34 23.5t23 34.5t8.5 41.5q0 42 -28 73t-69 35q3 10 4 20.5t1 21.5q0 36 -13.5 67.5t-37 55t-55 37t-67.5 13.5zM576 533q46 0 87 -17.5t72 -48.5t48.5 -72t17.5 -87v-4q14 -7 26.5 -16.5t23.5 -21.5q20 -22 30.5 -49.5t10.5 -57.5 q0 -33 -12.5 -61.5t-34 -50.5t-50 -34.5t-61.5 -12.5h-504q-28 0 -52 10.5t-42 28.5t-28.5 42.5t-10.5 52.5q0 44 24.5 78t62.5 48q7 30 23.5 56t40 44.5t53 29.5t61.5 11q2 0 4.5 -0.5t4.5 -0.5q27 60 82 96.5t123 36.5z" />
<glyph unicode="d" d="M401 -215h-53l79 160h53zM507 -215h-53l79 160h54zM613 -215h-53l80 160h53zM215 -55h158l-80 -161zM576 482q-32 0 -60 -10.5t-50.5 -29.5t-38 -44.5t-21.5 -55.5q-20 7 -44 7q-27 0 -51 -10.5t-42 -28.5t-28.5 -42t-10.5 -51q-35 0 -58.5 -24.5t-23.5 -58.5t23.5 -58.5 t58.5 -24.5h504q22 0 41.5 8.5t34 23.5t23 34.5t8.5 41.5q0 42 -28 73t-69 35q3 10 4 20.5t1 21.5q0 36 -13.5 67.5t-37 55t-55 37t-67.5 13.5zM576 533q46 0 87 -17.5t72 -48.5t48.5 -72t17.5 -87v-4q14 -7 26.5 -16.5t23.5 -21.5q20 -22 30.5 -49.5t10.5 -57.5 q0 -33 -12.5 -61.5t-34 -50.5t-50 -34.5t-61.5 -12.5h-504q-28 0 -52 10.5t-42 28.5t-28.5 42.5t-10.5 52.5q0 44 24.5 78t62.5 48q7 30 23.5 56t40 44.5t53 29.5t61.5 11q2 0 4.5 -0.5t4.5 -0.5q27 60 82 96.5t123 36.5z" />
<glyph unicode="e" d="M188 -215h-53l80 160h53zM294 -215h-53l80 160h53zM401 -215h-53l79 160h53zM507 -215h-53l79 160h54zM613 -215h-53l80 160h53zM719 -215h-53l80 160h53zM576 482q-32 0 -60 -10.5t-50.5 -29.5t-38 -44.5t-21.5 -55.5q-20 7 -44 7q-27 0 -51 -10.5t-42 -28.5t-28.5 -42 t-10.5 -51q-35 0 -58.5 -24.5t-23.5 -58.5t23.5 -58.5t58.5 -24.5h504q22 0 41.5 8.5t34 23.5t23 34.5t8.5 41.5q0 42 -28 73t-69 35q3 10 4 20.5t1 21.5q0 36 -13.5 67.5t-37 55t-55 37t-67.5 13.5zM576 533q46 0 87 -17.5t72 -48.5t48.5 -72t17.5 -87v-4q14 -7 26.5 -16.5 t23.5 -21.5q20 -22 30.5 -49.5t10.5 -57.5q0 -33 -12.5 -61.5t-34 -50.5t-50 -34.5t-61.5 -12.5h-504q-28 0 -52 10.5t-42 28.5t-28.5 42.5t-10.5 52.5q0 44 24.5 78t62.5 48q7 30 23.5 56t40 44.5t53 29.5t61.5 11q2 0 4.5 -0.5t4.5 -0.5q27 60 82 96.5t123 36.5z" />
<glyph unicode="f" d="M556 -155h-45h-3l2 -2l22 -39l-33 -19l-22 38l-2 4l-1 -4l-22 -38l-34 19l22 38l3 3h-5h-43l-1 38h44h5l-3 3l-22 38l33 20l23 -39l1 -3l2 3l22 39l33 -19l-22 -39l-2 -3l3 1h45v-39zM343 -155h-44h-4l2 -2l23 -39l-33 -19l-23 38l-1 4l-2 -4l-22 -38l-33 19l22 38l2 3 h-4h-44v38h44h4l-2 3l-22 38l33 20l22 -39l2 -3l1 3l22 39l34 -19l-23 -39l-2 -3l4 1h44v-39zM768 -155h-44h-4l2 -2l23 -39l-34 -19l-22 38l-1 4l-2 -4l-22 -38l-33 19l22 38l2 3h-4h-44v38h44h4l-2 3l-22 38l33 20l22 -39l2 -3l1 3l22 39l33 -19l-22 -39l-2 -3l4 1h44v-39 zM576 482q-32 0 -60 -10.5t-50.5 -29.5t-38 -44.5t-21.5 -55.5q-20 7 -44 7q-27 0 -51 -10.5t-42 -28.5t-28.5 -42t-10.5 -51q-35 0 -58.5 -24.5t-23.5 -58.5t23.5 -58.5t58.5 -24.5h504q22 0 41.5 8.5t34 23.5t23 34.5t8.5 41.5q0 42 -28 73t-69 35q3 10 4 20.5t1 21.5 q0 36 -13.5 67.5t-37 55t-55 37t-67.5 13.5zM576 533q46 0 87 -17.5t72 -48.5t48.5 -72t17.5 -87v-4q14 -7 26.5 -16.5t23.5 -21.5q20 -22 30.5 -49.5t10.5 -57.5q0 -33 -12.5 -61.5t-34 -50.5t-50 -34.5t-61.5 -12.5h-504q-28 0 -52 10.5t-42 28.5t-28.5 42.5t-10.5 52.5 q0 44 24.5 78t62.5 48q7 30 23.5 56t40 44.5t53 29.5t61.5 11q2 0 4.5 -0.5t4.5 -0.5q27 60 82 96.5t123 36.5z" />
<glyph unicode="g" d="M450 -155h-45h-3l2 -2l22 -39l-33 -19l-22 38l-2 4l-2 -4l-22 -38l-33 19l22 38l2 3h-4h-44v38h44h4l-2 3l-22 38l33 20l22 -39l2 -3l1 3l23 39l33 -19l-22 -39l-3 -3l4 1h45v-39zM511 -80h239v-40h-239v40zM511 -155h195v-40h-195v40zM576 482q-32 0 -60 -10.5 t-50.5 -29.5t-38 -44.5t-21.5 -55.5q-20 7 -44 7q-27 0 -51 -10.5t-42 -28.5t-28.5 -42t-10.5 -51q-35 0 -58.5 -24.5t-23.5 -58.5t23.5 -58.5t58.5 -24.5h504q22 0 41.5 8.5t34 23.5t23 34.5t8.5 41.5q0 42 -28 73t-69 35q3 10 4 20.5t1 21.5q0 36 -13.5 67.5t-37 55 t-55 37t-67.5 13.5zM576 533q46 0 87 -17.5t72 -48.5t48.5 -72t17.5 -87v-4q14 -7 26.5 -16.5t23.5 -21.5q20 -22 30.5 -49.5t10.5 -57.5q0 -33 -12.5 -61.5t-34 -50.5t-50 -34.5t-61.5 -12.5h-504q-28 0 -52 10.5t-42 28.5t-28.5 42.5t-10.5 52.5q0 44 24.5 78t62.5 48 q7 30 23.5 56t40 44.5t53 29.5t61.5 11q2 0 4.5 -0.5t4.5 -0.5q27 60 82 96.5t123 36.5z" />
<glyph unicode="h" d="M556 -155h-45h-3l2 -2l22 -39l-33 -19l-22 38l-2 4l-1 -4l-22 -38l-34 19l22 38l3 3h-5h-43l-1 38h44h5l-3 3l-22 38l33 20l23 -39l1 -3l2 3l22 39l33 -19l-22 -39l-2 -3l3 1h45v-39zM343 -155h-44h-4l2 -2l23 -39l-33 -19l-23 38l-1 4l-2 -4l-22 -38l-33 19l22 38l2 3 h-4h-44v38h44h4l-2 3l-22 38l33 20l22 -39l2 -3l1 3l22 39l34 -19l-23 -39l-2 -3l4 1h44v-39zM617 -80h239v-40h-239v40zM617 -155h195v-40h-195v40zM576 482q-32 0 -60 -10.5t-50.5 -29.5t-38 -44.5t-21.5 -55.5q-20 7 -44 7q-27 0 -51 -10.5t-42 -28.5t-28.5 -42 t-10.5 -51q-35 0 -58.5 -24.5t-23.5 -58.5t23.5 -58.5t58.5 -24.5h504q22 0 41.5 8.5t34 23.5t23 34.5t8.5 41.5q0 42 -28 73t-69 35q3 10 4 20.5t1 21.5q0 36 -13.5 67.5t-37 55t-55 37t-67.5 13.5zM576 533q46 0 87 -17.5t72 -48.5t48.5 -72t17.5 -87v-4q14 -7 26.5 -16.5 t23.5 -21.5q20 -22 30.5 -49.5t10.5 -57.5q0 -33 -12.5 -61.5t-34 -50.5t-50 -34.5t-61.5 -12.5h-504q-28 0 -52 10.5t-42 28.5t-28.5 42.5t-10.5 52.5q0 44 24.5 78t62.5 48q7 30 23.5 56t40 44.5t53 29.5t61.5 11q2 0 4.5 -0.5t4.5 -0.5q27 60 82 96.5t123 36.5z" />
<glyph unicode="i" d="M576 623q-32 0 -60 -10.5t-50.5 -29.5t-38 -44.5t-21.5 -55.5q-20 7 -44 7q-27 0 -51 -10.5t-42 -28.5t-28.5 -42t-10.5 -51q-35 0 -58.5 -24.5t-23.5 -58.5t23.5 -58.5t58.5 -24.5h504q22 0 41.5 8.5t34 23.5t23 34.5t8.5 41.5q0 42 -28 73t-69 35q3 10 4 20.5t1 21.5 q0 36 -13.5 67.5t-37 55t-55 37t-67.5 13.5zM576 674q46 0 87 -17.5t72 -48.5t48.5 -72t17.5 -87v-4q14 -7 26.5 -16.5t23.5 -21.5q20 -22 30.5 -49.5t10.5 -57.5q0 -33 -12.5 -61.5t-34 -50.5t-50 -34.5t-61.5 -12.5h-504q-28 0 -52 10.5t-42 28.5t-28.5 42.5t-10.5 52.5 q0 44 24.5 78t62.5 48q7 30 23.5 56t40 44.5t53 29.5t61.5 11q2 0 4.5 -0.5t4.5 -0.5q27 60 82 96.5t123 36.5zM259 52v-218h469v113l-101 -43v43l-100 -43v43l-101 -43v43l-100 -43v148h-67zM375 52v-74l32 14l68 29v-43l33 14l68 29v-43l32 14l68 29v-43l32 14l68 29v-74 l1 -113v-49h-49h-469h-49v49v218v49h49h67h49v-49z" />
<glyph unicode="j" d="M600 -80h239v-40h-239v40zM600 -155h195v-40h-195v40zM146 -80q8 0 14 -6t6 -14t-6 -14t-14 -6t-14 6t-6 14t6 14t14 6zM193 -58q11 0 11 -11t-11 -11t-11 11t11 11zM297 -72q11 0 19 -8t8 -20q0 -11 -8 -19t-19 -8q-12 0 -20 8t-8 19q0 12 8 20t20 8zM234 -155 q16 0 16 -17q0 -16 -16 -16q-17 0 -17 16q0 17 17 17zM329 -155q10 0 16.5 -6.5t6.5 -16.5t-6.5 -16.5t-16.5 -6.5t-17 6.5t-7 16.5t7 16.5t17 6.5zM375 -100q10 0 16.5 -6.5t6.5 -16.5t-6.5 -16.5t-16.5 -6.5t-16.5 6.5t-6.5 16.5t6.5 16.5t16.5 6.5zM445 -178q11 0 11 -11 t-11 -11t-11 11t11 11zM213 -111q8 0 14.5 -6t6.5 -14t-6.5 -14.5t-14.5 -6.5t-14 6.5t-6 14.5t6 14t14 6zM315 122q10 0 10 -10t-10 -10t-10 10t10 10zM370 189q10 0 17 -7.5t7 -17.5q0 -11 -7 -18t-17 -7q-11 0 -18 7t-7 18q0 10 7 17.5t18 7.5zM470 122q6 0 10.5 -4.5 t4.5 -10.5t-4.5 -10t-10.5 -4q-14 0 -14 14q0 6 4 10.5t10 4.5zM563 217q11 0 18.5 -7.5t7.5 -18.5t-7.5 -18t-18.5 -7t-18 7t-7 18t7 18.5t18 7.5zM719 137q12 0 12 -13q0 -12 -12 -12q-13 0 -13 12q0 13 13 13zM651 112q11 0 11 -11q0 -10 -11 -10q-10 0 -10 10 q0 11 10 11zM760 192q10 0 10 -9q0 -10 -10 -10t-10 10q0 9 10 9zM313 281q16 0 16 -16t-16 -16t-16 16t16 16zM234 155q7 0 11.5 -5t4.5 -12q0 -16 -16 -16q-17 0 -17 16q0 7 4.5 12t12.5 5zM115 15q8 0 13.5 -5t5.5 -13q0 -19 -19 -19q-8 0 -13 5.5t-5 13.5t5 13t13 5z M64 -58q9 0 9 -8q0 -9 -9 -9t-9 9q0 8 9 8zM94 -131q9 0 15 -6.5t6 -14.5q0 -9 -6 -15.5t-15 -6.5q-8 0 -14.5 6.5t-6.5 15.5q0 8 6.5 14.5t14.5 6.5zM391 102q6 0 10.5 -4.5t4.5 -11.5q0 -6 -4.5 -10.5t-10.5 -4.5q-7 0 -11.5 4.5t-4.5 10.5q0 16 16 16zM551 122 q12 0 12 -13t-12 -13q-13 0 -13 13t13 13zM381 -44q11 0 11 -11t-11 -11t-11 11t11 11zM485 -87q13 0 22.5 -9.5t9.5 -23.5q0 -13 -9.5 -22.5t-22.5 -9.5q-14 0 -23 9.5t-9 22.5q0 14 9 23.5t23 9.5zM576 482q-32 0 -60 -10.5t-50.5 -29.5t-38 -44.5t-21.5 -55.5 q-20 7 -44 7q-27 0 -51 -10.5t-42 -28.5t-28.5 -42t-10.5 -51q-35 0 -58.5 -24.5t-23.5 -58.5t23.5 -58.5t58.5 -24.5h504q22 0 41.5 8.5t34 23.5t23 34.5t8.5 41.5q0 42 -28 73t-69 35q3 10 4 20.5t1 21.5q0 36 -13.5 67.5t-37 55t-55 37t-67.5 13.5zM576 533 q46 0 87 -17.5t72 -48.5t48.5 -72t17.5 -87v-4q14 -7 26.5 -16.5t23.5 -21.5q20 -22 30.5 -49.5t10.5 -57.5q0 -33 -12.5 -61.5t-34 -50.5t-50 -34.5t-61.5 -12.5h-504q-28 0 -52 10.5t-42 28.5t-28.5 42.5t-10.5 52.5q0 44 24.5 78t62.5 48q7 30 23.5 56t40 44.5t53 29.5 t61.5 11q2 0 4.5 -0.5t4.5 -0.5q27 60 82 96.5t123 36.5z" />
<glyph unicode="k" d="M728 51l-53 -106h53l-80 -160h-53l53 107h-53l55 108h-52l79 159h53l-54 -108h52zM516 -155h-45h-3l2 -2l22 -39l-33 -19l-22 38l-2 4l-1 -4l-22 -38l-34 19l22 38l3 3h-4h-44v38h44h4l-3 3l-22 38l33 20l23 -39l1 -3l2 3l22 39l33 -19l-22 -39l-2 -3l4 1h44v-39z M917 266q20 -22 30.5 -49.5t10.5 -57.5q0 -33 -12.5 -61.5t-34 -50.5t-50 -34.5t-61.5 -12.5h-33l26 51h7q22 0 41.5 8.5t34 23.5t23 34.5t8.5 41.5q0 21 -7.5 40t-20.5 33.5t-30.5 23.5t-37.5 11q5 22 5 42q0 36 -13.5 67.5t-37 55t-55 37t-67.5 13.5q-32 0 -60.5 -10.5 t-51 -29.5t-37.5 -44.5t-21 -55.5q-20 7 -45 7q-27 0 -51 -10.5t-42 -28.5t-28.5 -42t-10.5 -51q-34 0 -58 -24.5t-24 -58.5t24 -58.5t58 -24.5h266l-26 -51h-240q-27 0 -51.5 10.5t-42.5 28.5t-28.5 42.5t-10.5 52.5q0 44 24.5 78t62.5 48q7 30 23.5 56t40 44.5t53 29.5 t61.5 11q2 0 5 -0.5t5 -0.5q13 30 34 54.5t48 42t58 27t65 9.5q46 0 87 -17.5t71.5 -48.5t48 -72t17.5 -87v-4q29 -14 50 -38zM265 577q0 -45 23 -80.5t60 -53.5q-17 -15 -36 -24q-36 -18 -78 -18q-36 0 -68.5 14t-56.5 38t-38 56t-14 68q0 37 14 69t38 56t56.5 38t68.5 14 q42 0 78 -18q19 -9 36 -24q-37 -19 -60 -54.5t-23 -80.5zM262 455q-23 24 -36.5 55.5t-13.5 66.5q0 36 13.5 67.5t36.5 55.5q-14 3 -28 3q-26 0 -49 -10t-40 -27t-27 -40t-10 -49t10 -48.5t27 -39.5t40 -27t49 -10q14 0 28 3z" />
<glyph unicode="l" d="M851 266q20 -22 30.5 -49.5t10.5 -57.5q0 -33 -12.5 -61.5t-34 -50.5t-50 -34.5t-61.5 -12.5h-33l25 51h8q22 0 41.5 8.5t34 23.5t23 34.5t8.5 41.5q0 42 -28 73t-69 35q3 10 4 20.5t1 21.5q0 36 -13.5 67.5t-37 55t-55 37t-67.5 13.5q-32 0 -60 -10.5t-50.5 -29.5 t-38 -44.5t-21.5 -55.5q-20 7 -44 7q-27 0 -51 -10.5t-42 -28.5t-28.5 -42t-10.5 -51q-35 0 -58.5 -24.5t-23.5 -58.5t23.5 -58.5t58.5 -24.5h266l-26 -51h-240q-28 0 -52 10.5t-42 28.5t-28.5 42.5t-10.5 52.5q0 44 24.5 78t62.5 48q7 30 23.5 56t40 44.5t53 29.5t61.5 11 q2 0 4.5 -0.5t4.5 -0.5q27 60 82 96.5t123 36.5q46 0 87 -17.5t72 -48.5t48.5 -72t17.5 -87v-4q14 -7 26.5 -16.5t23.5 -21.5zM662 51l-53 -106h53l-80 -160h-53l53 107h-53l54 108h-52l80 159h53l-54 -108h52zM450 -155h-45h-3l2 -2l22 -39l-33 -19l-22 38l-2 4l-2 -4 l-22 -38l-33 19l22 38l2 3h-4h-44v38h44h4l-2 3l-22 38l33 20l22 -39l2 -3l1 3l23 39l33 -19l-22 -39l-3 -3l4 1h45v-39z" />
<glyph unicode="m" d="M851 266q20 -22 30.5 -49.5t10.5 -57.5q0 -33 -12.5 -61.5t-34 -50.5t-50 -34.5t-61.5 -12.5h-33l25 51h8q22 0 41.5 8.5t34 23.5t23 34.5t8.5 41.5q0 42 -28 73t-69 35q3 10 4 20.5t1 21.5q0 36 -13.5 67.5t-37 55t-55 37t-67.5 13.5q-32 0 -60 -10.5t-50.5 -29.5 t-38 -44.5t-21.5 -55.5q-20 7 -44 7q-27 0 -51 -10.5t-42 -28.5t-28.5 -42t-10.5 -51q-35 0 -58.5 -24.5t-23.5 -58.5t23.5 -58.5t58.5 -24.5h266l-26 -51h-240q-28 0 -52 10.5t-42 28.5t-28.5 42.5t-10.5 52.5q0 44 24.5 78t62.5 48q7 30 23.5 56t40 44.5t53 29.5t61.5 11 q2 0 4.5 -0.5t4.5 -0.5q27 60 82 96.5t123 36.5q46 0 87 -17.5t72 -48.5t48.5 -72t17.5 -87v-4q14 -7 26.5 -16.5t23.5 -21.5zM662 51l-53 -106h53l-80 -160h-53l53 107h-53l54 108h-52l80 159h53l-54 -108h52zM369 -76q25 0 42 -17.5t17 -42.5t-17 -42t-42 -17t-42.5 17 t-17.5 42t17.5 42.5t42.5 17.5z" />
<glyph unicode="n" d="M488 482q-32 0 -60.5 -10.5t-51 -29.5t-37.5 -44.5t-21 -55.5q-20 7 -45 7q-27 0 -51 -10.5t-42 -28.5t-28.5 -42t-10.5 -51q-34 0 -58 -24.5t-24 -58.5t24 -58.5t58 -24.5h504q22 0 41.5 8.5t34 23.5t23 34.5t8.5 41.5q0 21 -7.5 40t-20.5 33.5t-30.5 23.5t-37.5 11 q5 22 5 42q0 36 -13.5 67.5t-37 55t-55 37t-67.5 13.5zM488 533q46 0 87 -17.5t71.5 -48.5t48 -72t17.5 -87v-4q29 -14 50 -38q20 -22 30.5 -49.5t10.5 -57.5q0 -33 -12.5 -61.5t-34 -50.5t-50 -34.5t-61.5 -12.5h-504q-27 0 -51.5 10.5t-42.5 28.5t-28.5 42.5t-10.5 52.5 q0 44 24.5 78t62.5 48q7 30 23.5 56t40 44.5t53 29.5t61.5 11q3 0 5.5 -0.5t4.5 -0.5q13 30 34 54.5t48 42t58 27t65 9.5zM861 161h130v-50h-136q6 22 6 48v2zM768 338q-1 20 -8 45h231v-51h-215q-2 2 -4 3t-4 3zM852 221q-7 26 -23 51h162v-51h-139z" />
<glyph unicode="o" d="M417 384q-9 -56 11 -120q6 -20 18 -41t26 -45q11 -18 22.5 -38t22.5 -43q20 -42 25.5 -78t1.5 -74q7 16 12.5 31.5t10.5 31.5q12 42 15 81t-4 81q-15 104 4 177q6 23 13 37h-178zM674 426q-5 -11 -16.5 -27t-21.5 -44t-14.5 -70.5t5.5 -106.5q9 -59 2 -109t-22 -94.5 t-35.5 -84.5t-39.5 -79l-6 -13h-61l6 28q9 40 16 72.5t9 61.5t-3 56.5t-20 59.5q-24 51 -51 91.5t-41 82.5q-32 101 0 183h296zM851 408q41 -47 41 -107q0 -33 -12.5 -62t-34 -50.5t-50 -34t-61.5 -12.5h-59q-1 10 -2 20.5t-3 21.5q0 6 -1 8h65q22 0 41.5 8.5t34 23.5t23 35 t8.5 42q0 42 -27.5 72.5t-69.5 35.5q3 10 4 20t1 21q0 36 -13.5 67.5t-37 55t-55 37t-67.5 13.5q-32 0 -60 -10.5t-50.5 -29.5t-38 -44.5t-21.5 -55.5q-22 8 -44 8q-27 0 -51 -10.5t-42 -28.5t-28.5 -42t-10.5 -52q-35 0 -58.5 -24t-23.5 -58q0 -35 23.5 -59.5t58.5 -24.5 h127q7 -13 14 -25t15 -25h-156q-28 0 -52 10.5t-42 28.5t-28.5 42.5t-10.5 52.5q0 43 24.5 77.5t62.5 48.5q7 30 23.5 55.5t40 44.5t53 29.5t61.5 10.5h9q27 60 82 96.5t123 36.5q46 0 87 -17.5t72 -48.5t48.5 -72t17.5 -87v-5q29 -13 50 -37z" />
<glyph unicode="p" d="M456 370q55 32 114.5 40t115.5 -5.5t104 -47.5t78 -86l-42 -24q-20 35 -50.5 60t-66.5 39.5t-75.5 17t-79.5 -6.5l12 -6q55 -32 92 -80t53.5 -103.5t10.5 -113.5t-36 -110l-42 24q20 35 27 74t1.5 77t-23 74t-45.5 66v-11q0 -64 -23 -120t-62.5 -98t-93 -66t-113.5 -24 v49q40 0 76 13t66 36t53 55t35 70q-6 -5 -11 -7q-55 -32 -115 -40t-116 5.5t-104 47t-78 86.5l42 24q21 -35 51 -60.5t66.5 -39.5t76.5 -17t80 7l-12 6q-55 32 -92 80t-53.5 103t-10.5 113t36 111l42 -24q-20 -35 -27 -73.5t-1.5 -77t22.5 -74t45 -65.5v14q0 63 23 119 t62.5 98t93 66t113.5 24v-48q-41 0 -77.5 -13.5t-66.5 -37t-52.5 -56t-34.5 -71.5q3 2 6 3.5t6 3.5zM494 287q-11 0 -18 -6.5t-7 -17.5q0 -10 7 -17t18 -7q10 0 17 7t7 17q0 11 -7 17.5t-17 6.5z" />
<glyph unicode="q" d="M312 -179h-53l44 88h53zM418 -179h-53l44 88h54zM525 -179h-54l45 88h53zM631 -179h-53l44 88h53zM206 -179h-53l44 88h53zM737 -179h-53l44 88h53zM576 482q-32 0 -60 -10.5t-50.5 -29.5t-38 -44.5t-21.5 -55.5q-20 7 -44 7q-27 0 -51 -10.5t-42 -28.5t-28.5 -42 t-10.5 -51q-35 0 -58.5 -24.5t-23.5 -58.5t23.5 -58.5t58.5 -24.5h504q22 0 41.5 8.5t34 23.5t23 34.5t8.5 41.5q0 42 -28 73t-69 35q3 10 4 20.5t1 21.5q0 36 -13.5 67.5t-37 55t-55 37t-67.5 13.5zM576 533q46 0 87 -17.5t72 -48.5t48.5 -72t17.5 -87v-4q14 -7 26.5 -16.5 t23.5 -21.5q20 -22 30.5 -49.5t10.5 -57.5q0 -33 -12.5 -61.5t-34 -50.5t-50 -34.5t-61.5 -12.5h-504q-28 0 -52 10.5t-42 28.5t-28.5 42.5t-10.5 52.5q0 44 24.5 78t62.5 48q7 30 23.5 56t40 44.5t53 29.5t61.5 11q2 0 4.5 -0.5t4.5 -0.5q27 60 82 96.5t123 36.5z" />
<glyph unicode="r" d="M312 -179h-53l44 88h53zM418 -179h-53l44 88h54zM525 -179h-54l45 88h53zM631 -179h-53l44 88h53zM206 -179h-53l44 88h53zM737 -179h-53l44 88h53zM576 482q-32 0 -60 -10.5t-50.5 -29.5t-38 -44.5t-21.5 -55.5q-20 7 -44 7q-27 0 -51 -10.5t-42 -28.5t-28.5 -42 t-10.5 -51q-35 0 -58.5 -24.5t-23.5 -58.5t23.5 -58.5t58.5 -24.5h504q22 0 41.5 8.5t34 23.5t23 34.5t8.5 41.5q0 42 -28 73t-69 35q3 10 4 20.5t1 21.5q0 36 -13.5 67.5t-37 55t-55 37t-67.5 13.5zM576 533q46 0 87 -17.5t72 -48.5t48.5 -72t17.5 -87v-4q14 -7 26.5 -16.5 t23.5 -21.5q20 -22 30.5 -49.5t10.5 -57.5q0 -33 -12.5 -61.5t-34 -50.5t-50 -34.5t-61.5 -12.5h-504q-28 0 -52 10.5t-42 28.5t-28.5 42.5t-10.5 52.5q0 44 24.5 78t62.5 48q7 30 23.5 56t40 44.5t53 29.5t61.5 11q2 0 4.5 -0.5t4.5 -0.5q27 60 82 96.5t123 36.5z" />
<glyph unicode="s" d="M418 -179h-53l44 88h54zM525 -179h-54l45 88h53zM631 -179h-53l44 88h53zM312 -179h-53l44 88h53zM737 -179h-53l44 88h53zM250 -91l-46 -91l-44 91h90zM576 482q-32 0 -60 -10.5t-50.5 -29.5t-38 -44.5t-21.5 -55.5q-20 7 -44 7q-27 0 -51 -10.5t-42 -28.5t-28.5 -42 t-10.5 -51q-35 0 -58.5 -24.5t-23.5 -58.5t23.5 -58.5t58.5 -24.5h504q22 0 41.5 8.5t34 23.5t23 34.5t8.5 41.5q0 42 -28 73t-69 35q3 10 4 20.5t1 21.5q0 36 -13.5 67.5t-37 55t-55 37t-67.5 13.5zM576 533q46 0 87 -17.5t72 -48.5t48.5 -72t17.5 -87v-4q14 -7 26.5 -16.5 t23.5 -21.5q20 -22 30.5 -49.5t10.5 -57.5q0 -33 -12.5 -61.5t-34 -50.5t-50 -34.5t-61.5 -12.5h-504q-28 0 -52 10.5t-42 28.5t-28.5 42.5t-10.5 52.5q0 44 24.5 78t62.5 48q7 30 23.5 56t40 44.5t53 29.5t61.5 11q2 0 4.5 -0.5t4.5 -0.5q27 60 82 96.5t123 36.5z" />
<glyph unicode="t" d="M418 -179h-53l44 88h54zM525 -179h-54l45 88h53zM631 -179h-53l44 88h53zM312 -179h-53l44 88h53zM737 -179h-53l44 88h53zM250 -91l-46 -91l-44 91h90zM576 482q-32 0 -60 -10.5t-50.5 -29.5t-38 -44.5t-21.5 -55.5q-20 7 -44 7q-27 0 -51 -10.5t-42 -28.5t-28.5 -42 t-10.5 -51q-35 0 -58.5 -24.5t-23.5 -58.5t23.5 -58.5t58.5 -24.5h504q22 0 41.5 8.5t34 23.5t23 34.5t8.5 41.5q0 42 -28 73t-69 35q3 10 4 20.5t1 21.5q0 36 -13.5 67.5t-37 55t-55 37t-67.5 13.5zM576 533q46 0 87 -17.5t72 -48.5t48.5 -72t17.5 -87v-4q14 -7 26.5 -16.5 t23.5 -21.5q20 -22 30.5 -49.5t10.5 -57.5q0 -33 -12.5 -61.5t-34 -50.5t-50 -34.5t-61.5 -12.5h-504q-28 0 -52 10.5t-42 28.5t-28.5 42.5t-10.5 52.5q0 44 24.5 78t62.5 48q7 30 23.5 56t40 44.5t53 29.5t61.5 11q2 0 4.5 -0.5t4.5 -0.5q27 60 82 96.5t123 36.5z" />
<glyph unicode="u" d="M255 -215h-54l80 160h53zM361 -215h-53l79 160h53zM467 -215h-53l80 160h53zM573 -215h-53l80 160h53zM679 -215h-53l80 160h53zM786 -215h-53l79 160h53zM41 493l25 42l77 -44q-14 -20 -25 -43zM350 580q-7 1 -13.5 1h-12.5h-13t-12 -1v90h51v-90zM146 616l43 24l45 -77 q-11 -5 -22 -11t-21 -13zM13 334v49h87q-1 -7 -1 -13v-12v-11.5t1 -12.5h-87zM456 538q-10 8 -20.5 13.5t-21.5 10.5l44 78l43 -24zM41 223l77 44q5 -11 11 -21.5t13 -20.5l-76 -44zM958 159q0 -33 -12.5 -61.5t-34 -50.5t-50 -34.5t-61.5 -12.5h-504q-27 0 -51.5 10.5 t-42.5 28.5t-28.5 42.5t-10.5 52.5t10.5 52.5t28.5 42.5q-26 24 -41 57.5t-15 71.5q0 36 14 68.5t38 56.5t56.5 38t68.5 14q47 0 86 -22.5t63 -58.5q31 37 75.5 58t95.5 21q46 0 87 -17.5t71.5 -48.5t48 -72t17.5 -87v-4q29 -14 50 -38q20 -22 30.5 -49.5t10.5 -57.5z M246 258q1 1 2 1t2 1q7 30 23.5 56t40 44.5t53 29.5t61.5 11q2 0 5 -0.5t5 -0.5q0 1 2 5q-14 35 -45.5 57t-71.5 22q-26 0 -49 -10t-40 -27t-27 -40t-10 -49q0 -31 13 -57t36 -43zM907 159q0 21 -7.5 40t-20.5 33.5t-30.5 23.5t-37.5 11q5 22 5 42q0 36 -13.5 67.5t-37 55 t-55 37t-67.5 13.5q-32 0 -60.5 -10.5t-51 -29.5t-37.5 -44.5t-21 -55.5q-20 7 -45 7q-27 0 -51 -10.5t-42 -28.5t-28.5 -42t-10.5 -51q-34 0 -58 -24.5t-24 -58.5t24 -58.5t58 -24.5h504q22 0 41.5 8.5t34 23.5t23 34.5t8.5 41.5z" />
<glyph unicode="v" d="M255 -215h-54l80 160h53zM361 -215h-53l79 160h53zM467 -215h-53l80 160h53zM573 -215h-53l80 160h53zM679 -215h-53l80 160h53zM786 -215h-53l79 160h53zM643 482q-32 0 -60.5 -10.5t-51 -29.5t-37.5 -44.5t-21 -55.5q-20 7 -45 7q-27 0 -51 -10.5t-42 -28.5t-28.5 -42 t-10.5 -51q-34 0 -58 -24.5t-24 -58.5t24 -58.5t58 -24.5h504q22 0 41.5 8.5t34 23.5t23 34.5t8.5 41.5q0 21 -7.5 40t-20.5 33.5t-30.5 23.5t-37.5 11q5 22 5 42q0 36 -13.5 67.5t-37 55t-55 37t-67.5 13.5zM643 533q46 0 87 -17.5t71.5 -48.5t48 -72t17.5 -87v-4 q29 -14 50 -38q20 -22 30.5 -49.5t10.5 -57.5q0 -33 -12.5 -61.5t-34 -50.5t-50 -34.5t-61.5 -12.5h-504q-27 0 -51.5 10.5t-42.5 28.5t-28.5 42.5t-10.5 52.5q0 44 24.5 78t62.5 48q7 30 23.5 56t40 44.5t53 29.5t61.5 11q2 0 5 -0.5t5 -0.5q13 30 34 54.5t48 42t58 27 t65 9.5zM265 577q0 -45 23 -80.5t60 -53.5q-17 -15 -36 -24q-36 -18 -78 -18q-36 0 -68.5 14t-56.5 38t-38 56t-14 68q0 37 14 69t38 56t56.5 38t68.5 14q42 0 78 -18q19 -9 36 -24q-37 -19 -60 -54.5t-23 -80.5zM262 455q-23 24 -36.5 55.5t-13.5 66.5q0 36 13.5 67.5 t36.5 55.5q-14 3 -28 3q-26 0 -49 -10t-40 -27t-27 -40t-10 -49t10 -48.5t27 -39.5t40 -27t49 -10q14 0 28 3z" />
<glyph unicode="w" d="M255 -215h-54l80 160h53zM361 -215h-53l79 160h53zM622 -155h-44h-4l2 -2l23 -39l-34 -19l-22 38l-1 4l-2 -4l-22 -38l-33 19l21 38l3 3h-4h-44v38h44h4l-2 3l-23 38l34 20l22 -39l1 -3l2 3l22 39l33 -19l-22 -39l-2 -3l4 1h44v-39zM835 -155h-45h-3l2 -2l22 -39l-33 -19 l-22 38l-2 4l-2 -4l-22 -38l-33 19l22 38l2 3h-4h-44v38h44h4l-2 3l-22 38l33 20l22 -39l2 -3l1 3l23 39l33 -19l-22 -39l-2 -3l3 1h45v-39zM41 493l25 42l77 -44q-14 -20 -25 -43zM350 580q-7 1 -13.5 1h-12.5h-13t-12 -1v90h51v-90zM146 616l43 24l45 -77q-11 -5 -22 -11 t-21 -13zM13 334v49h87q-1 -7 -1 -13v-12v-11.5t1 -12.5h-87zM456 538q-10 8 -20.5 13.5t-21.5 10.5l44 78l43 -24zM41 223l77 44q5 -11 11 -21.5t13 -20.5l-76 -44zM958 159q0 -33 -12.5 -61.5t-34 -50.5t-50 -34.5t-61.5 -12.5h-504q-27 0 -51.5 10.5t-42.5 28.5 t-28.5 42.5t-10.5 52.5t10.5 52.5t28.5 42.5q-26 24 -41 57.5t-15 71.5q0 36 14 68.5t38 56.5t56.5 38t68.5 14q47 0 86 -22.5t63 -58.5q31 37 75.5 58t95.5 21q46 0 87 -17.5t71.5 -48.5t48 -72t17.5 -87v-4q29 -14 50 -38q20 -22 30.5 -49.5t10.5 -57.5zM246 258q1 1 2 1 t2 1q7 30 23.5 56t40 44.5t53 29.5t61.5 11q2 0 5 -0.5t5 -0.5q0 1 2 5q-14 35 -45.5 57t-71.5 22q-26 0 -49 -10t-40 -27t-27 -40t-10 -49q0 -31 13 -57t36 -43zM907 159q0 21 -7.5 40t-20.5 33.5t-30.5 23.5t-37.5 11q5 22 5 42q0 36 -13.5 67.5t-37 55t-55 37t-67.5 13.5 q-32 0 -60.5 -10.5t-51 -29.5t-37.5 -44.5t-21 -55.5q-20 7 -45 7q-27 0 -51 -10.5t-42 -28.5t-28.5 -42t-10.5 -51q-34 0 -58 -24.5t-24 -58.5t24 -58.5t58 -24.5h504q22 0 41.5 8.5t34 23.5t23 34.5t8.5 41.5z" />
<glyph unicode="x" d="M255 -215h-54l80 160h53zM361 -215h-53l79 160h53zM622 -155h-44h-4l2 -2l23 -39l-34 -19l-22 38l-1 4l-2 -4l-22 -38l-33 19l21 38l3 3h-4h-44v38h44h4l-2 3l-23 38l34 20l22 -39l1 -3l2 3l22 39l33 -19l-22 -39l-2 -3l4 1h44v-39zM835 -155h-45h-3l2 -2l22 -39l-33 -19 l-22 38l-2 4l-2 -4l-22 -38l-33 19l22 38l2 3h-4h-44v38h44h4l-2 3l-22 38l33 20l22 -39l2 -3l1 3l23 39l33 -19l-22 -39l-2 -3l3 1h45v-39zM643 482q-32 0 -60.5 -10.5t-51 -29.5t-37.5 -44.5t-21 -55.5q-20 7 -45 7q-27 0 -51 -10.5t-42 -28.5t-28.5 -42t-10.5 -51 q-34 0 -58 -24.5t-24 -58.5t24 -58.5t58 -24.5h504q22 0 41.5 8.5t34 23.5t23 34.5t8.5 41.5q0 21 -7.5 40t-20.5 33.5t-30.5 23.5t-37.5 11q5 22 5 42q0 36 -13.5 67.5t-37 55t-55 37t-67.5 13.5zM643 533q46 0 87 -17.5t71.5 -48.5t48 -72t17.5 -87v-4q29 -14 50 -38 q20 -22 30.5 -49.5t10.5 -57.5q0 -33 -12.5 -61.5t-34 -50.5t-50 -34.5t-61.5 -12.5h-504q-27 0 -51.5 10.5t-42.5 28.5t-28.5 42.5t-10.5 52.5q0 44 24.5 78t62.5 48q7 30 23.5 56t40 44.5t53 29.5t61.5 11q2 0 5 -0.5t5 -0.5q13 30 34 54.5t48 42t58 27t65 9.5zM265 577 q0 -45 23 -80.5t60 -53.5q-17 -15 -36 -24q-36 -18 -78 -18q-36 0 -68.5 14t-56.5 38t-38 56t-14 68q0 37 14 69t38 56t56.5 38t68.5 14q42 0 78 -18q19 -9 36 -24q-37 -19 -60 -54.5t-23 -80.5zM262 455q-23 24 -36.5 55.5t-13.5 66.5q0 36 13.5 67.5t36.5 55.5 q-14 3 -28 3q-26 0 -49 -10t-40 -27t-27 -40t-10 -49t10 -48.5t27 -39.5t40 -27t49 -10q14 0 28 3z" />
<glyph unicode="y" d="M188 -215h-53l80 160h53zM294 -215h-53l80 160h53zM556 -155h-45h-3l2 -2l22 -39l-33 -19l-22 38l-2 4l-1 -4l-22 -38l-34 19l22 38l3 3h-5h-43l-1 38h44h5l-3 3l-22 38l33 20l23 -39l1 -3l2 3l22 39l33 -19l-22 -39l-2 -3l3 1h45v-39zM768 -155h-44h-4l2 -2l23 -39 l-34 -19l-22 38l-1 4l-2 -4l-22 -38l-33 19l22 38l2 3h-4h-44v38h44h4l-2 3l-22 38l33 20l22 -39l2 -3l1 3l22 39l33 -19l-22 -39l-2 -3l4 1h44v-39zM576 482q-32 0 -60 -10.5t-50.5 -29.5t-38 -44.5t-21.5 -55.5q-20 7 -44 7q-27 0 -51 -10.5t-42 -28.5t-28.5 -42 t-10.5 -51q-35 0 -58.5 -24.5t-23.5 -58.5t23.5 -58.5t58.5 -24.5h504q22 0 41.5 8.5t34 23.5t23 34.5t8.5 41.5q0 42 -28 73t-69 35q3 10 4 20.5t1 21.5q0 36 -13.5 67.5t-37 55t-55 37t-67.5 13.5zM576 533q46 0 87 -17.5t72 -48.5t48.5 -72t17.5 -87v-4q14 -7 26.5 -16.5 t23.5 -21.5q20 -22 30.5 -49.5t10.5 -57.5q0 -33 -12.5 -61.5t-34 -50.5t-50 -34.5t-61.5 -12.5h-504q-28 0 -52 10.5t-42 28.5t-28.5 42.5t-10.5 52.5q0 44 24.5 78t62.5 48q7 30 23.5 56t40 44.5t53 29.5t61.5 11q2 0 4.5 -0.5t4.5 -0.5q27 60 82 96.5t123 36.5z" />
<glyph unicode="z" d="M188 -215h-53l80 160h53zM294 -215h-53l80 160h53zM556 -155h-45h-3l2 -2l22 -39l-33 -19l-22 38l-2 4l-1 -4l-22 -38l-34 19l22 38l3 3h-5h-43l-1 38h44h5l-3 3l-22 38l33 20l23 -39l1 -3l2 3l22 39l33 -19l-22 -39l-2 -3l3 1h45v-39zM768 -155h-44h-4l2 -2l23 -39 l-34 -19l-22 38l-1 4l-2 -4l-22 -38l-33 19l22 38l2 3h-4h-44v38h44h4l-2 3l-22 38l33 20l22 -39l2 -3l1 3l22 39l33 -19l-22 -39l-2 -3l4 1h44v-39zM576 482q-32 0 -60 -10.5t-50.5 -29.5t-38 -44.5t-21.5 -55.5q-20 7 -44 7q-27 0 -51 -10.5t-42 -28.5t-28.5 -42 t-10.5 -51q-35 0 -58.5 -24.5t-23.5 -58.5t23.5 -58.5t58.5 -24.5h504q22 0 41.5 8.5t34 23.5t23 34.5t8.5 41.5q0 42 -28 73t-69 35q3 10 4 20.5t1 21.5q0 36 -13.5 67.5t-37 55t-55 37t-67.5 13.5zM576 533q46 0 87 -17.5t72 -48.5t48.5 -72t17.5 -87v-4q14 -7 26.5 -16.5 t23.5 -21.5q20 -22 30.5 -49.5t10.5 -57.5q0 -33 -12.5 -61.5t-34 -50.5t-50 -34.5t-61.5 -12.5h-504q-28 0 -52 10.5t-42 28.5t-28.5 42.5t-10.5 52.5q0 44 24.5 78t62.5 48q7 30 23.5 56t40 44.5t53 29.5t61.5 11q2 0 4.5 -0.5t4.5 -0.5q27 60 82 96.5t123 36.5z" />
<glyph unicode="{" d="M860 -213h-733l307 483h119zM224 -165h539l-234 386h-71zM230 142q-28 0 -52 10.5t-42 28.5t-28.5 42.5t-10.5 52.5q0 43 24.5 77.5t62.5 48.5q7 30 23.5 55.5t40 44.5t53 29.5t61.5 10.5h9q27 60 82 96.5t123 36.5q46 0 87 -17.5t72 -48.5t48.5 -72t17.5 -87v-5 q29 -13 50 -37q41 -47 41 -107q0 -33 -12.5 -62t-34 -50.5t-50 -34t-61.5 -12.5h-29l-33 50h62q22 0 41.5 8.5t34 23.5t23 35t8.5 42q0 42 -27.5 72.5t-69.5 35.5q3 10 4 20t1 21q0 36 -13.5 67.5t-37 55t-55 37t-67.5 13.5q-32 0 -60 -10.5t-50.5 -29.5t-38 -44.5 t-21.5 -55.5q-22 8 -44 8q-27 0 -51 -10.5t-42 -28.5t-28.5 -42t-10.5 -52q-35 0 -58.5 -24t-23.5 -58q0 -35 23.5 -59.5t58.5 -24.5h86l-34 -50h-52z" />
<glyph unicode="|" d="M547 0v51h51v-51h-51zM547 103v44q0 51 42 98l18 18q4 3 7.5 6.5l6.5 6.5q2 4 4 7.5t4 7.5q3 9 3 21q0 15 -4 24q-5 10 -12 17q-8 8 -18 11q-12 5 -23 5q-29 0 -45 -18t-18 -56l-1 -17h-51v18q2 28 9 50q9 22 24 39q14 16 36 25q11 5 22.5 6.5t23.5 1.5q26 0 43 -8 q11 -4 19 -9.5t16 -12.5q14 -14 22 -35q8 -19 8 -43q0 -18 -5 -35q-6 -15 -13 -25q-4 -6 -8 -10.5t-9 -9.5q-4 -4 -7.5 -7t-7.5 -7q-18 -18 -27 -36q-8 -19 -8 -38v-39h-51zM230 0q-28 0 -52 10.5t-42 28.5t-28.5 42.5t-10.5 52.5q0 44 24.5 78t62.5 48q7 30 23.5 56 t40 44.5t53 29.5t61.5 11q2 0 4.5 -0.5t4.5 -0.5q27 60 82 96.5t123 36.5q46 0 87 -17.5t72 -48.5t48.5 -72t17.5 -87v-4q14 -7 26.5 -16.5t23.5 -21.5q20 -22 30.5 -49.5t10.5 -57.5q0 -33 -12.5 -61.5t-34 -50.5t-50 -34.5t-61.5 -12.5h-86v51h86q22 0 41.5 8.5t34 23.5 t23 34.5t8.5 41.5q0 42 -28 73t-69 35q3 10 4 20.5t1 21.5q0 36 -13.5 67.5t-37 55t-55 37t-67.5 13.5q-32 0 -60 -10.5t-50.5 -29.5t-38 -44.5t-21.5 -55.5q-20 7 -44 7q-27 0 -51 -10.5t-42 -28.5t-28.5 -42t-10.5 -51q-35 0 -58.5 -24.5t-23.5 -58.5t23.5 -58.5 t58.5 -24.5h268v-51h-268z" />
<glyph unicode="~" d="M820 291q10 0 15 -5v-27q-5 -5 -14 -5t-14 5v27q5 5 13 5zM252 286v-9h28v9q-5 5 -14 5t-14 -5zM748 286v-9h28v9q-5 5 -14 5t-14 -5zM330 265v-7q4 -4 16 -4q4 0 12 2v15l-16 -3q-1 0 -6 -1t-6 -2zM472 286v-27q5 -5 14 -5t14 5v27q-5 5 -14 5t-14 -5zM577 286v-27 q5 -5 14 -5t14 5v27q-5 5 -15 5q-8 0 -13 -5zM989 340v-120q0 -5 -3.5 -8.5t-8.5 -3.5h-954q-5 0 -8.5 3.5t-3.5 8.5v120q0 5 3.5 9t8.5 4h954q5 0 8.5 -4t3.5 -9zM145 284q0 8 -7 12t-14 4q-10 0 -18 -5q-7 5 -16 5q-8 0 -15 -4t-7 -12v-39h9v41q5 5 13 5q7 0 12 -5v-41h9 v41q5 5 13 5q7 0 12 -5v-41h9v39zM170 296q0 4 -5 4q-4 0 -4 -4v-51h9v51zM172 316q0 6 -7 6q-6 0 -6 -6q0 -7 6 -7q7 0 7 7zM238 245l-28 32l18 15q4 3 1 6.5t-7 0.5l-27 -23v42q0 5 -5 5t-5 -5v-73h10v19l8 6l22 -25h13zM290 286q0 8 -8.5 11t-15.5 3t-15 -3t-8 -11v-27 q0 -8 8 -11.5t15 -3.5q10 0 18 3q5 2 3.5 7t-6.5 3q-2 -1 -5.5 -2t-9.5 -1q-9 0 -14 5v9h38v18zM367 286q0 8 -8 11t-15 3q-4 0 -9.5 -0.5t-9.5 -2.5v-10q8 4 19 4q9 0 14 -5v-4l-18 -5q-5 -1 -12.5 -3t-7.5 -9v-8q0 -7 9 -10t17 -3q6 0 11 1t10 3v38zM394 300v7q5 5 14 5 q4 0 4 5t-4 5q-8 0 -16 -3.5t-8 -11.5v-7h-6v-10h6v-45h10v45h14q4 0 4 5t-4 5h-14zM435 300v7q5 5 14 5q5 0 5 5t-5 5q-7 0 -15.5 -3.5t-8.5 -11.5v-7h-6v-10h6v-45h10v45h14q5 0 5 5t-5 5h-14zM509 286q0 8 -8 11t-15 3t-15.5 -3t-8.5 -11v-27q0 -8 8.5 -11.5t15.5 -3.5 t15 3.5t8 11.5v27zM546 300q-7 0 -15 -2.5t-8 -10.5v-42h9v42q3 2 6 3t8 1q3 0 9 -2q4 0 6 3q2 6 -5 7t-10 1zM614 322h-9v-24q-4 2 -8 2h-7q-7 0 -15 -3t-8 -11v-27q0 -8 8.5 -11.5t15.5 -3.5t15 3.5t8 11.5v63zM726 284q0 8 -7 12t-15 4q-10 0 -17 -5q-8 5 -17 5 q-8 0 -15 -4t-7 -12v-39h10v41q2 2 4.5 3.5t7.5 1.5q7 0 12 -5v-41h10v41q3 5 12 5q7 0 12 -5v-41h10v39zM786 286q0 8 -8.5 11t-15.5 3t-15 -3t-8 -11v-27q0 -8 8 -11.5t15 -3.5q10 0 18 3q5 2 3.5 7t-6.5 3q-2 -1 -5.5 -2t-9.5 -1q-9 0 -14 5v9h38v18zM845 322h-10v-24 q-5 2 -15 2q-7 0 -14.5 -3t-7.5 -11v-27q0 -8 8 -11.5t15 -3.5t15.5 3.5t8.5 11.5v63zM869 296q0 4 -4 4q-5 0 -5 -4v-51h9v51zM871 316q0 6 -6 6q-7 0 -7 -6q0 -7 7 -7q6 0 6 7zM930 286q0 8 -8 11t-15 3q-4 0 -9.5 -0.5t-9.5 -2.5v-10q8 4 19 4q10 0 13 -5v-4l-17 -5 q-5 -1 -12.5 -3t-7.5 -9v-8q0 -7 9 -10t17 -3q5 0 10.5 1t10.5 3v38zM893 265v-7q4 -4 16 -4q3 0 11 2v15l-15 -3q-1 0 -6 -1t-6 -2z" />
<glyph unicode="&#x25fc;" horiz-adv-x="755" d="M0 755h755v-755h-755v755z" />
</font>
</defs>
</svg>
